Затащи меня в Ад / Drag Me to Hell (2009) BDRip 720p | 60fps

 

Создавать темы 15-Фев-2015 17:09

Затащи меня в Ад / Drag Me to Hell (2009) BDRip 720p | 60fps«Christine Brown has a good job, a great boyfriend, and a bright future. But in three days, she's going to hell»- Информация о фильме
Название: Затащи меня в Ад
Оригинальное название: Drag Me to Hell
Год выхода: 2009
Жанр: Ужасы
Режиссер: Сэм Рэйми
Продюссер: Грант Кертис, Джозеф Дрэйк, Натан Каан
В ролях:
Джастин Лонг, Челси Росс, Дэвид Пэймер, Алексей Мясников, Нина Тобилевич, Илья Хвостиков, Наталья Фищук, Василий Дахненко, Элисон Ломан, Лорна Рэвер, Дилип Рао, Адриана Барраза, Регги Ли, Молли Чик, Бояна Новакович
Описание фильма:
Кристина Браун живет в Лос-Анжелесе, работает в банке, оформляя клиентам ссуды, у нее обаятельный и любящий бойфренд, профессор Клэй Далтон. Все складывается хорошо и, казалось, что жизнь удалась…, но только до тех пор, пока в банке не появляется некая миссис Гануш с просьбой об отсрочке ипотечного кредита...
Страна: США
Студия: Buckaroo Entertainment, Ghost House Pictures
Продолжительность: 01:38:56
Перевод: Профессиональный (полное дублирование)
Субтитры: Вшитые, отключаемые
Язык субтитров: Русский (Full), Английский (Full)
Дата мировой премьеры: 15 марта 2009
Дата российской премьеры: 9 июля 2009, «West»
Дата выхода DVD релиза: 5 апреля 2010, «West Video»
Дата выхода Blu-Ray релиза: 5 апреля 2010, «West Video»
Файл
Формат: MKV
Кодек: MPEG-4 AVC/H.264
Качество: BDRip 720p
Видео: ~ 6703 Кбит/сек, 1280 x 544, 59.940 кадров/сек
Аудио: AC3 5.1, 48.0 KHz, 384 Кбит/сек - Русский (Позитив-Мультимедиа)

MediaInfo

Общее
Уникальный идентификатор : 221139665364978709194286011539558119004 (0xA65DF34999F6A5A19754D64A75EE365C)
Полное имя : D:\Торренты\Drag Me to Hell 60fps.mkv
Формат : Matroska
Версия формата : Version 2
Размер файла : 5,00 Гбайт
Продолжительность : 1 ч. 38 м.
Общий поток : 7231 Кбит/сек
Название фильма : Drag Me to Hell (2009) Blu-ray RUS 1080p AVC
Дата кодирования : UTC 2015-02-15 14:14:33
Программа кодирования : mkvmerge v6.9.1 ('Blue Panther') 64bit built on Apr 18 2014 18:23:38
Библиотека кодирования : libebml v1.3.0 + libmatroska v1.4.1
Видео
Идентификатор : 1
Формат : AVC
Формат/Информация : Advanced Video Codec
Профиль формата : [email protected]
Параметр CABAC формата : Да
Параметр ReFrames формата : 6 кадров
Идентификатор кодека : V_MPEG4/ISO/AVC
Продолжительность : 1 ч. 38 м.
Битрейт : 6703 Кбит/сек
Ширина : 1280 пикселей
Высота : 544 пикселя
Соотношение сторон : 2,35:1
Режим частоты кадров : Постоянный
Частота кадров : 59,880 кадров/сек
Частота кадров в оригинале : 59,940 кадров/сек
Цветовое пространство : YUV
Субдискретизация насыщенности : 4:2:0
Битовая глубина : 8 бит
Тип развёртки : Прогрессивная
Бит/(Пиксели*Кадры) : 0.161
Размер потока : 4,63 Гбайт (93%)
Заголовок : Release by mimok
Библиотека кодирования : x264 core 130 r2273 b3065e6
Настройки программы : cabac=1 / ref=6 / deblock=1:0:0 / analyse=0x3:0x133 / me=umh / subme=8 / psy=1 / psy_rd=1.00:0.15 / mixed_ref=1 / me_range=20 / chroma_me=1 / trellis=2 / 8x8dct=1 / cqm=0 / deadzone=21,11 / fast_pskip=0 / chroma_qp_offset=-3 / threads=6 / lookahead_threads=2 / sliced_threads=0 / nr=0 / decimate=0 / interlaced=0 / bluray_compat=0 / constrained_intra=0 / bframes=8 / b_pyramid=2 / b_adapt=2 / b_bias=0 / direct=1 / weightb=1 / open_gop=0 / weightp=2 / keyint=250 / keyint_min=25 / scenecut=40 / intra_refresh=0 / rc=crf / mbtree=0 / crf=18.5 / qcomp=0.63 / qpmin=10 / qpmax=51 / qpstep=4 / ip_ratio=1.40 / pb_ratio=1.30 / aq=1:1.20
Default : Да
Forced : Нет
Аудио
Идентификатор : 2
Формат : AC-3
Формат/Информация : Audio Coding 3
Расширение режима : CM (complete main)
Параметр Endianness формата : Big
Идентификатор кодека : A_AC3
Продолжительность : 1 ч. 38 м.
Вид битрейта : Постоянный
Битрейт : 384 Кбит/сек
Каналы : 6 каналов
Расположение каналов : Front: L C R, Side: L R, LFE
Частота : 48,0 КГц
Битовая глубина : 16 бит
Метод сжатия : С потерями
Размер потока : 272 Мбайт (5%)
Заголовок : Dub
Язык : Russian
Default : Да
Forced : Нет
Текст #1
Идентификатор : 3
Формат : UTF-8
Идентификатор кодека : S_TEXT/UTF8
Идентификатор кодека/Информация : UTF-8 Plain Text
Заголовок : Full
Язык : Russian
Default : Да
Forced : Нет
Текст #2
Идентификатор : 4
Формат : UTF-8
Идентификатор кодека : S_TEXT/UTF8
Идентификатор кодека/Информация : UTF-8 Plain Text
Заголовок : Full
Язык : English
Default : Нет
Forced : Нет

Скриншоты:

Яндекс.Метрика
Рейтинг@Mail.ru