Прапорщик Шматко или Ё-Моё / Серии: 1-16 из 16 (Влад Николаев, Максим Василенко) [2007 г., комедия, приключения, драма, DVDRip]

 

Создавать темы 15-Фев-2015 16:59

-Прапорщик Шматко или Ё-Моё-- Производство: Россия
Жанр: комедия, приключения, драма
Год выпуска: 2007 г.
Продолжительность: ~00:45:00
Режиссер: Влад Николаев, Максим Василенко-В ролях: Алексей Маклаков, Владимир Толоконников, Анна Большова, Илья Рутберг, Татьяна Кравченко, Виктор Логинов, Татьяна Кузнецова, Сергей Таланов, Виталий Альшанский, Ольга Юрасова, Илья Белокобыльский, Павел Галич, Василий Шевелилкин, Максим Мальцев-Описание: Новый сюжет со старыми героями. Центральный персонаж - прапорщик Шматко из сериала "Солдаты" в месте с тещей Анжелой Олеговной и детьми он приезжает в Одессу. Его жена Маша ударилась в религию, попала в секту и уехала в Одессу, Шматко предстоит разыскать беглянку.
Одесситы - весьма колоритные люди, и авторы сценария постарались создать на этой плодородной почве комичных и интересных персонажей. Поискам Шматко поспособствуют соседи, бывшие одноклассники, дальние родственники... Страна увидит дядю Шматко - первоисточник знаменитых фраз прапорщика. В какой-то момент к поискам Маши присоединяться другие знакомые зрителю герои - Папазогло, Лавров и Щур. А красноречивого прапорщика Шматко пригласят в местное правительство...
-
Качество видео: DVDRip
Контейнер: AVI
Видео кодек: XviD
Аудио кодек: AC3
Видео: 720x544 (1.32:1), 25 fps, XviD build 47 ~1566 kbps avg, 0.16 bit/pixel
Аудио: 48 kHz, AC3 Dolby Digital, 2/0 (L,R) ch, ~256 kbps
Cубтитры: отсутствуют

Трейлер

Media Info

Общее
Полное имя : F:\Фильмы\Прапорщик Шматко или Ё-Моё (2007) DVDRip [16]\Praporschik.Shmatko.ili.e.moe.(01.serija.iz.16).2007.XviD.DVDRip.avi
Формат : AVI
Формат/Информация : Audio Video Interleave
Размер файла : 570 Мбайт
Продолжительность : 43 м.
Общий поток : 1832 Кбит/сек
Программа кодирования : VirtualDubMod 1.5.10.2 (build 2540/release)
Библиотека кодирования : VirtualDubMod build 2540/release
Видео
Идентификатор : 0
Формат : MPEG-4 Visual
Профиль формата : Advanced [email protected]
Параметр BVOP формата : 1
Параметр QPel формата : Нет
Параметр GMC формата : Без точки перехода
Параметр матрицы формата : Выборочная
Идентификатор кодека : XVID
Идентификатор кодека/Подсказка : XviD
Продолжительность : 43 м.
Битрейт : 1566 Кбит/сек
Ширина : 720 пикселей
Высота : 544 пикселя
Соотношение сторон : 4:3
Частота кадров : 25,000 кадров/сек
Цветовое пространство : YUV
Субдискретизация насыщенности : 4:2:0
Битовая глубина : 8 бит
Тип развёртки : Прогрессивная
Метод сжатия : С потерями
Бит/(Пиксели*Кадры) : 0.160
Размер потока : 487 Мбайт (85%)
Библиотека кодирования : XviD 1.2.0.dev47 (UTC 2006-11-01)
Аудио
Идентификатор : 1
Формат : AC-3
Формат/Информация : Audio Coding 3
Расширение режима : CM (complete main)
Параметр Endianness формата : Big
Идентификатор кодека : 2000
Продолжительность : 43 м.
Вид битрейта : Постоянный
Битрейт : 256 Кбит/сек
Каналы : 2 канала
Расположение каналов : Front: L R
Частота : 48,0 КГц
Битовая глубина : 16 бит
Метод сжатия : С потерями
Размер потока : 79,6 Мбайт (14%)
Выравнивание : Разделение по промежуткам
Продолжительность промежутка : 40 мс. (1,00 видеокадр)
Время предзагрузки промежутка : 500 мс.

Скриншот c названием фильма

Скриншоты
Яндекс.Метрика
Рейтинг@Mail.ru