[ Сегодня на трекере фрилич! Идет свободное скачивание без начисления Download ]

Зубная фея / Tooth Fairy (Майкл Лембек)[2010, Комедия, семейный,BDRip]-AVC от 0ptimus | D

 

Создавать темы 22-Ноя-2013 04:01

Информация о фильме
Название: Зубная фея
Оригинальное название: Tooth Fairy
Год выхода: 2010
Режиссер: Майкл Лембек
Жано: Комедия, семейный
В ролях: Дуэйн Джонсон, Эшли Джадд, Джули Эндрюс, Брэндон Т. Джексон, Билли Кристал, Стивен Мерчант, Райан Шеклер, Алекс Феррис, Чэйз Эллисон, Джош Эмерсон, Дариен Провост, Брендан Пенни, Рукия Бернар, Майкл Дейнджерфилд, Брендан Бейзер, Брендан Мейер, Дестини Уитлок, Николас Карелла, Тони Алькантар, Дерек Гилрой, Джон Тенч
О фильме:
Игрок хоккейной лиги, получивший за привычку выбивать соперникам зубы прозвище Зубная Фея, получает наказание за свое скверное поведение — он должен изображать Зубную Фею из сказок, то есть, надев крылья и балетную пачку, прокрадываться по ночам в дома и оставлять детям монетку под подушкой.

Страна: США
Студия: Twentieth Century Fox Film Corporation, Walden Media, Mayhem Pictures
Продолжительность: 01:41:28
Перевод: Дублированный
Файл
Кодек: h.264
Качество: BDRip-AVC
Видео: 2995 Кбит/с, 1024x552, 23.976 кадр/с
Звук:
• №1: Русский (АС3, 6 ch, 384 Кбит/с) Дублированный
• №2: Украинский (АС3, 6 ch, 384 Кбит/с) Дублированный
• №3: Английский (АС3, 6 ch, 384 Кбит/с)
Субтитры: Русские, украинские, английские

MediaInfo

---------------------------------------------------------------------------
x264 [info]: frame I:1575 Avg QP:16.48 size: 94192
x264 [info]: frame P:32659 Avg QP:19.20 size: 30408
x264 [info]: frame B:111752 Avg QP:20.93 size: 10170
---------------------------------------------------------------------------
Полное имя : Tooth.Fairy.2010.x264.BDRip.(AVC).0ptimus.mkv
Формат : Matroska
Версия формата : Version 4 / Version 2
Размер файла : 2,94 Гбайт
Продолжительность : 1 ч. 41 м.
Общий поток : 4148 Кбит/сек
Название фильма : Зубная фея | Tooth Fairy [2010] -=BDRip (AVC) by 0ptimus=-
Дата кодирования : UTC 2013-11-02 08:25:39
Программа кодирования : mkvmerge v6.1.0 ('Old Devil') built on Mar 2 2013 14:32:37
Библиотека кодирования : libebml v1.3.0 + libmatroska v1.4.0
Видео
Идентификатор : 1
Формат : AVC
Формат/Информация : Advanced Video Codec
Профиль формата : [email protected]
Параметр CABAC формата : Да
Параметр ReFrames формата : 9 кадров
Идентификатор кодека : V_MPEG4/ISO/AVC
Продолжительность : 1 ч. 41 м.
Битрейт : 2995 Кбит/сек
Ширина : 1024 пикселя
Высота : 552 пикселя
Соотношение сторон : 1,855
Частота кадров : 23,976 кадра/сек
Цветовое пространство : YUV
Субдискретизация насыщенности : 4:2:0
Битовая глубина : 8 бит
Тип развёртки : Прогрессивная
Бит/(Пиксели*Кадры) : 0.221
Размер потока : 2,06 Гбайт (70%)
Заголовок : Rip by 0ptimus
Библиотека кодирования : x264 core 133 r2334 a3ac64b
Настройки программы : cabac=1 / ref=9 / deblock=1:-3:-3 / analyse=0x3:0x113 / me=umh / subme=11 / psy=1 / psy_rd=1.00:0.20 / mixed_ref=1 / me_range=48 / chroma_me=1 / trellis=2 / 8x8dct=1 / cqm=0 / deadzone=21,11 / fast_pskip=0 / chroma_qp_offset=-3 / threads=4 / lookahead_threads=1 / sliced_threads=0 / nr=0 / decimate=0 / interlaced=0 / bluray_compat=0 / constrained_intra=0 / bframes=12 / b_pyramid=2 / b_adapt=2 / b_bias=0 / direct=3 / weightb=1 / open_gop=0 / weightp=2 / keyint=240 / keyint_min=23 / scenecut=40 / intra_refresh=0 / rc_lookahead=40 / rc=2pass / mbtree=0 / bitrate=2995 / ratetol=1.0 / qcomp=0.60 / qpmin=0 / qpmax=69 / qpstep=4 / cplxblur=20.0 / qblur=0.5 / vbv_maxrate=50000 / vbv_bufsize=50000 / nal_hrd=none / ip_ratio=1.40 / pb_ratio=1.30 / aq=1:1.00
Язык : English
Аудио #1
Идентификатор : 2
Формат : AC-3
Формат/Информация : Audio Coding 3
Расширение режима : CM (complete main)
Идентификатор кодека : A_AC3
Продолжительность : 1 ч. 41 м.
Вид битрейта : Постоянный
Битрейт : 384 Кбит/сек
Каналы : 6 каналов
Расположение каналов : Front: L C R, Side: L R, LFE
Частота : 48,0 КГц
Битовая глубина : 16 бит
Метод сжатия : С потерями
Размер потока : 279 Мбайт (9%)
Заголовок : Дублированный AC3 5.1 @ 384 kbps
Язык : Russian
Аудио #2
Идентификатор : 3
Формат : AC-3
Формат/Информация : Audio Coding 3
Расширение режима : CM (complete main)
Идентификатор кодека : A_AC3
Продолжительность : 1 ч. 41 м.
Вид битрейта : Постоянный
Битрейт : 384 Кбит/сек
Каналы : 6 каналов
Расположение каналов : Front: L C R, Side: L R, LFE
Частота : 48,0 КГц
Битовая глубина : 16 бит
Метод сжатия : С потерями
Размер потока : 279 Мбайт (9%)
Заголовок : Дублированный AC3 5.1 @ 384 kbps
Язык : Ukrainian
Аудио #3
Идентификатор : 4
Формат : AC-3
Формат/Информация : Audio Coding 3
Расширение режима : CM (complete main)
Идентификатор кодека : A_AC3
Продолжительность : 1 ч. 41 м.
Вид битрейта : Постоянный
Битрейт : 384 Кбит/сек
Каналы : 6 каналов
Расположение каналов : Front: L C R, Side: L R, LFE
Частота : 48,0 КГц
Битовая глубина : 16 бит
Метод сжатия : С потерями
Размер потока : 279 Мбайт (9%)
Заголовок : AC3 5.1 @ 384 kbps
Язык : English
Текст #1
Идентификатор : 5
Формат : UTF-8
Идентификатор кодека : S_TEXT/UTF8
Идентификатор кодека/Информация : UTF-8 Plain Text
Язык : Russian
Текст #2
Идентификатор : 6
Формат : UTF-8
Идентификатор кодека : S_TEXT/UTF8
Идентификатор кодека/Информация : UTF-8 Plain Text
Язык : Ukrainian
Текст #3
Идентификатор : 7
Формат : UTF-8
Идентификатор кодека : S_TEXT/UTF8
Идентификатор кодека/Информация : UTF-8 Plain Text
Язык : English
Меню
00:00:00.000 : en:How To Be Happy
00:05:19.194 : en:Playing Games
00:10:12.654 : en:Dreamkiller
00:14:57.438 : en:Tooth Fairy Godmother
00:17:37.598 : en:Tools of the Trade
00:21:55.856 : en:F.O.A.
00:25:01.750 : en:I Love Surprises
00:29:44.783 : en:First Assignment
00:32:43.170 : en:A Little Tiny Man
00:37:16.276 : en:Dethroned
00:40:58.289 : en:I Hate This Job
00:43:55.466 : en:Hanging Out
00:49:22.626 : en:The Worst Ever
00:52:42.409 : en:Learning His Lesson
00:57:01.668 : en:Doing It His Way
01:01:43.325 : en:Take the Shot
01:07:25.041 : en:Just Another Kid
01:11:31.078 : en:The Person You Hurt the Most
01:13:24.066 : en:Get Up!
01:18:17.651 : en:Learning to Fly
01:21:30.928 : en:The Real Tooth Fairy
01:27:07.722 : en:The Way We Do Things
01:30:56.117 : en:What If?
01:34:59.027 : en:That Was a Rush

Скриншоты

Релиз от:
Яндекс.Метрика
Рейтинг@Mail.ru