Трансеры: Антология / Trancers: Antology (Чарльз Бэнд / Charles Band) [1985-2002 г., фантастика, боевик, DVDRip-AVC]

 

Создавать темы 10-Фев-2015 05:16

-Трансеры: Антология / Trancers: Antology-- --Трансеры / Trancers--«2247 collides with 1985 . . . when a 23rd century crime fighter heats it up in L.A., today» Производство: США, Altar Productions, Empire Pictures, Lexyn Productions
Год выпуска: 1985 г.
Жанр: фантастика, боевик
Продолжительность: 01:16:26
Мировая премьера: 22 мая 1985
Перевод: Авторский (одноголосый, закадровый) [Пётр Карцев]
Оригинальный аудиопоток: английский
Режиссер: Чарльз Бэнд / Charles Band-В ролях: Тим Томерсон, Хелен Хант, Майкл Стефани, Арт Ла Флер, Телма Хопкинс, Ричард Херд, Энн Сеймур, Мигель Фернадес, Бифф Мэнард, Пит Шрам, Брэд Логан, Ричард Эрдман, Уайли Харкер, Барбара Перри-Описание: Из далекого будущего в наши дни в Лос-Анджелес направляют полицейского по имени Джек Дес, который должен отыскать преступника Мартина Уистлера и доставить его «обратно» в будущее. Ему предстоит сражаться с трансерами — людьми-зомби, которых лишает воли преступник, и встретить свою любовь. В конце концов Джека будет преследовать вся полиция Лос-Анджелеса во главе с Уистлером. От исхода их схватки зависит судьба человечества…-Качество видео: DVDRip-AVC
Контейнер: MKV
Видео кодек: H.264
Аудио кодек: AAC
Видео: 2431 Кбит/сек, 613x480, 23,976 кадра/сек, 0.307 Бит/(Пиксели*Кадры)
Аудио №1: 128 Кбит/сек, VBR, 2 канала, 48,0 КГц (Русский)
Аудио №2: 128 Кбит/сек, VBR, 2 канала, 48,0 КГц (Английский, отдельно)
Cубтитры: отсутствуют

Рецензия

ТрансПервое, на что обращаешь внимание при просмотре «Трансеров», так это на «вязкую» атмосферу далёкого будущего, пережившего катастрофу. Собственно, о самой катастрофе зрителям ничего в фильме не сообщается, но потрясающий пейзаж Лос-Анджелеса, до половины его самых высоких небоскрёбов заполненного водой, впечатляет! Сюжет «Трансеров» не то чтобы оригинальный, но необычным его вполне можно назвать. Наверное, я никогда не устану от просмотра бесконечных историй про отправление людей в прошлое, а потому за всеми штампами «Трансеров» мне при просмотре отнюдь не хотелось обращать внимание на редкие незначительные недостатки фильма. Интересен тот факт, что выходцы из кинокомпании Empire Pictures в будущем создали кинокомпанию Full Moon, которая стала известна миру как сборище завзятых трэш-мейкеров, а потому мне было любопытно, посмотрев «Трансеров», осознать, что фильм отнюдь не является подделкой.
Между прочим, в «Трансерах» присутствует даже настоящая звезда, правда, известная только среди узкого круга любителей дешёвеньких научно-фантастических боевиков. Речь идёт, безусловно, о Тиме Томерсоне, который исполняет в фильме роль бывалого полицейского Джека, отправившегося в прошлое спасать мир. Стоит сказать о том, что в «Трансерах» есть и запутанная любовная линия с её особенной интригой, а, собственно, главная сюжетная линия аккуратно «размазана» на весь хронометраж фильма. Засим в «Трансерах» интересных моментов — хоть отбавляй! Я даже больше скажу: тот час, который я провёл за просмотром фильма, пролетел для меня буквально незаметно — от одного интересного момента к другому. Поэтому скажу однозначно: «Трансеры» действительно способны влюбить в себя. Также мне стоит упомянуть об интриге в фильме, которая здесь настолько плотная и настолько же непрозрачная, что никакого желания не возникает задуматься хотя бы раз над тем, в какую же сторону повернут сценаристы сюжет — фильм смотришь с живым интересом и без каких-либо посторонних мыслей в голове.
Чем ещё радуют «Трансеры», так это своей замечательной идеей, которая касается как раз самих трансеров. В общем счёте, трансеры представляют собой мистическую секту с тёмным прошлым, с виду они довольно сильно напоминают зомби — чем больше человека порабощает разум лидера секты и его злая воля, тем меньше он начинает походить на человека и ещё больше превращаться в живого бездумного мертвеца. Жаль только, что фильм о предыстории трансеров, если быть откровенным, особо не распространяется, хотя впрочем, и без этого, как уже было сказано, фильм не даёт зрителям заскучать. Ещё хочу сказать о том, что при просмотре «Трансеров» тяжёлая атмосфера фильма то и дело заставляла меня невольно напрягаться — что и говорить: «Трансеры» действительно цепляют! Иногда, конечно, при просмотре «мелькает» дешевизна этого фильма, но за всей его старинностью (всё-таки свет «Трансеры» увидели четверть века назад) на этот момент как-то закрываешь глаза.
Вердикт. Фильм «Трансеры» — добротный старенький научно-фантастический боевик, который привлекает к себе внимание в первую очередь своим интересным, в меру запутанным сюжетом. Как приятное дополнение к просмотру, в фильме также присутствуют качественная любовная история с её особенной интригой и львиная доля шуток, которые действительно веселят, ибо высмеивают саму ситуацию, в которой оказался главный герой.8,5 из 10

Media Info

Общее
Уникальный идентификатор                 : 170261262918159698436849727200721861959 (0x8017205FD5C76F84BA87DF6B98937D47)
Полное имя                               : D:\movies\1234\Transers_collection\Trancers_1_1985\Trancers_1985.mkv
Формат                                   : Matroska
Версия формата                           : Version 2
Размер файла                             : 1,37 Гбайт
Продолжительность                        : 1 ч. 16 м.
Общий поток                              : 2561 Кбит/сек
Дата кодирования                         : UTC 2013-01-21 08:57:36
Программа кодирования                    : mkvmerge v5.8.0 ('No Sleep / Pillow') built on Sep  2 2012 15:37:04
Библиотека кодирования                   : libebml v1.2.3 + libmatroska v1.3.0
Видео
Идентификатор                            : 1
Формат                                   : AVC
Формат/Информация                        : Advanced Video Codec
Профиль формата                          : [email protected]
Параметр CABAC формата                   : Да
Параметр ReFrames формата                : 4 кадра
Идентификатор кодека                     : V_MPEG4/ISO/AVC
Продолжительность                        : 1 ч. 16 м.
Номинальный битрейт                      : 2431 Кбит/сек
Ширина                                   : 688 пикселей
Высота                                   : 480 пикселей
Соотношение сторон                       : 1,279
Соотношение сторон в оригинале           : 1,278
Режим частоты кадров                     : Постоянный
Частота кадров                           : 23,976 кадра/сек
Цветовое пространство                    : YUV
Субдискретизация насыщенности            : 4:2:0
Битовая глубина                          : 8 бит
Тип развёртки                            : Прогрессивная
Бит/(Пиксели*Кадры)                      : 0.307
Библиотека кодирования                   : x264 core 129 r2230 1cffe9f
Настройки программы                      : cabac=1 / ref=3 / deblock=1:-1:-1 / analyse=0x3:0x113 / me=hex / subme=7 / psy=1 / psy_rd=1.00:0.15 / mixed_ref=1 / me_range=16 / chroma_me=1 / trellis=1 / 8x8dct=1 / cqm=0 / deadzone=21,11 / fast_pskip=1 / chroma_qp_offset=-3 / threads=3 / lookahead_threads=1 / sliced_threads=0 / nr=0 / decimate=1 / interlaced=0 / bluray_compat=0 / constrained_intra=0 / bframes=3 / b_pyramid=2 / b_adapt=1 / b_bias=0 / direct=1 / weightb=1 / open_gop=0 / weightp=2 / keyint=240 / keyint_min=23 / scenecut=40 / intra_refresh=0 / rc_lookahead=40 / rc=2pass / mbtree=1 / bitrate=2431 / ratetol=1.0 / qcomp=0.60 / qpmin=0 / qpmax=69 / qpstep=4 / cplxblur=20.0 / qblur=0.5 / ip_ratio=1.40 / aq=1:1.00
Язык                                     : English
Default                                  : Да
Forced                                   : Нет
Аудио
Идентификатор                            : 2
Формат                                   : AAC
Формат/Информация                        : Advanced Audio Codec
Профиль формата                          : LC
Идентификатор кодека                     : A_AAC
Продолжительность                        : 1 ч. 16 м.
Каналы                                   : 2 канала
Расположение каналов                     : Front: L R
Частота                                  : 48,0 КГц
Метод сжатия                             : С потерями
Задержка видео                           : 9 мс.
Заголовок                                : Russian
Язык                                     : Russian
Default                                  : Да
Forced                                   : Да
Меню
00:00:00.054                             : en:00:00:00.054
Общее
Полное имя                               : D:\movies\1234\Transers_collection\Trancers_1_1985\Trancers_1985_eng.aac
Формат                                   : MPEG-4
Профиль формата                          : Base Media / Version 2
Идентификатор кодека                     : mp42
Размер файла                             : 70,9 Мбайт
Продолжительность                        : 1 ч. 16 м.
Режим общего битрейта                    : Переменный
Общий поток                              : 130 Кбит/сек
Дата кодирования                         : UTC 2013-01-21 05:17:56
Дата пометки                             : UTC 2013-01-21 05:24:55
Аудио
Идентификатор                            : 1
Формат                                   : AAC
Формат/Информация                        : Advanced Audio Codec
Профиль формата                          : LC
Идентификатор кодека                     : 40
Продолжительность                        : 1 ч. 16 м.
Вид битрейта                             : Переменный
Битрейт                                  : 128 Кбит/сек
Максимальный битрейт                     : 150 Кбит/сек
Каналы                                   : 2 канала
Расположение каналов                     : Front: L R
Частота                                  : 48,0 КГц
Метод сжатия                             : С потерями
Размер потока                            : 70,0 Мбайт (99%)
Библиотека кодирования                   : Nero AAC codec 1.5.4.0
Настройки программы                      : -br 128000 -lc
Дата кодирования                         : UTC 2013-01-21 05:17:56
Дата пометки                             : UTC 2013-01-21 05:24:55
Меню

Скриншот c названием фильма

Скриншоты

--Трансеры 2 : Возвращения Джека Дета / Trancers II : The Return of Jack Deth--«Time waits for no man... unless his name is JACK DETH!» Производство: США, Full Moon Entertainment
Год выпуска: 1991 г.
Жанр: фантастика, боевик
Продолжительность: 01:28:08
Мировая премьера: 22 августа 1991
Перевод: Профессиональный (двухголосый закадровый) [Дмитрий Матвеев и Анна Каменкова]
Оригинальный аудиопоток: английский
Режиссер: Чарльз Бэнд / Charles Band-В ролях: Тим Томерсон, Хелен Хант, Меган Уорд, Бифф Мэнард, Мартин Бесвик, Джеффри Комбс, Элисон Крофт, Тельма Хопкинс, Арт ЛаФлер, Барбара Крэмптон-Описание: 6 лет прошло с тех пор, как Джек Дэт — полицейский из будущего и профессиональный охотник за трансерами разделался с последним зомби-убийцей. Он спокойно живет у друга Хэпа Эшби со своей новой женой Леной.
Вдруг у него появляется особое чувство близкого присутствия трансеров. Как уничтожить трансеров и выжить с тремя очаровательными женщинами, две из которых твои жены?-Качество видео: DVDRip-AVC
Контейнер: MKV
Видео кодек: H.264
Аудио кодек: AAC
Видео: 2090 Кбит/сек, 621x480, 29,970 кадров/сек, 0.206 Бит/(Пиксели*Кадры)
Аудио №1: 128 Кбит/сек, VBR, 2 канала, 48,0 КГц (Русский)
Аудио №2: 128 Кбит/сек, VBR, 2 канала, 48,0 КГц (Английский, отдельно)
Cубтитры: отсутствуют

Рецензия

Лунный трансКогда я садился за просмотр сиквела «Трансеров», у меня возникали опасения на счёт того, что фильм окажется невменяемой подделкой от Full Moon, которые известны своим минималистическим подходом к постановке фильмов. Честно сказать, я был приятно удивлён, что «Трансеры 2» не только не растеряли своего былого шарма, но даже, наоборот, превзошли, без всяких преувеличений, оригинальный фильм. Сначала поговорим об их сюжете. Сюжет сиквела является логическим продолжением истории из первого фильма. В финале оригинальных «Трансеров» главный злодей перед самой смертью объявлял Джеку, что не боится смерти, ибо у него шесть братьев. Таким образом, он непрозрачно намекал, что с трансерами, людьми-зомби, ещё далеко не покончено. Минуло шесть лет с тех пор, как Джек впервые назвал Лос-Анджелес двадцатого века своим домом… и теперь ему вновь предстоит столкнуться с его заклятыми врагами трансерами лицом к лицу.
Оригинальные «Трансеры» поражали своей глубокой проработанностью. Безусловно, некоторые моменты в них оставались недосказанными, но это отнюдь не портило удовольствие от просмотра, а наоборот, вызывало к фильму ещё больший интерес. Оно и понятно: в концепции оригинальных «Трансеров» чувствовался огромный потенциал, который было невозможно чисто физически раскрыть выпуском всего лишь одного фильма. В оригинальных «Трансерах» также присутствовала особенная любовная история, без которой фильм растерял бы половину того шарма, свойственного ему. Там Джек, потерявший жену, которую убили трансеры, отправлялся в далёкое прошлое, преисполненный чувством мести и желанием разобраться с тем злодеем, который породил этих убийц. Резонанс в сознании бывшего полицейского происходил уже после первой встречи с молоденькой девушкой Линой, которую он, неожиданно для себя, искренне полюбил, что позволило ему забыть о смерти жены. В сиквеле Джек и Лина предстают перед зрителями уже в качестве мужа и жены, а потому неожиданно объявляющаяся из будущего жена Джека, Элис, которую с помощью изобретения новейшего устройства смогли отправить в прошлое ровно за день до её смерти, добавляет в фильм интриги.
Две жены одного главного героя, который обоих любит в равной степени, одну как погибшую жену-мученицу из далёкого будущего (для Джека — уже прошлого), а другую — как жену из далёкого же прошлого (для Джека — теперь настоящего, родного дома), вместе они привносят в фильм гораздо большую толику драмы, не свойственную оригинальным «Трансерам». Ну а сцены ревности между жёнами Джека полны весёлых моментов, однако, стоит вам сообщить, что в целом сиквел уже не настолько пропитан комедией, как фильм-оригинал: здесь чувствуется резкий уклон его создателей в сторону драмы. События, происходящие в сиквеле, не на шутку трогают, за героев искренне переживаешь и веришь той ситуации, в которой они оказались. Актёры в фильме играют как живые, чувствуется их опыт работы в кино. Что более всего важно: в сиквеле количество интересных и зрелищных моментов не упало по сравнению с фильмом-оригиналом — здесь также хватает качественных экшен-постановок и невероятных каскадёрских трюков.
Вердикт. Для кинокомпании Full Moon «Трансеры 2» довольно необычная картина. Все актёры в сиквеле остались на своих местах, сюжет был логически продолжен, драма практически полностью завладела атмосферой фильма, вот только комедийных моментов поубавилось, но те, что есть, веселят, как раньше. Так продолжения фильмов уже давно никто не снимает, включая самих Full Moon.9,5 из 10

Media Info

Общее
Уникальный идентификатор                 : 229515409978193544011014370563202930920 (0xACAB0F613DB96A79874E1DA7B13AD8E8)
Полное имя                               : D:\movies\1234\Transers_collection\Trancers_2_1991\Trancers_2_The_Return_of_Jack_Deth_1991.mkv
Формат                                   : Matroska
Версия формата                           : Version 2
Размер файла                             : 1,37 Гбайт
Продолжительность                        : 1 ч. 28 м.
Общий поток                              : 2221 Кбит/сек
Дата кодирования                         : UTC 2013-01-23 13:04:24
Программа кодирования                    : mkvmerge v5.8.0 ('No Sleep / Pillow') built on Sep  2 2012 15:37:04
Библиотека кодирования                   : libebml v1.2.3 + libmatroska v1.3.0
Видео
Идентификатор                            : 1
Формат                                   : AVC
Формат/Информация                        : Advanced Video Codec
Профиль формата                          : [email protected]
Параметр CABAC формата                   : Да
Параметр ReFrames формата                : 4 кадра
Идентификатор кодека                     : V_MPEG4/ISO/AVC
Продолжительность                        : 1 ч. 28 м.
Номинальный битрейт                      : 2090 Кбит/сек
Ширина                                   : 704 пикселя
Высота                                   : 480 пикселей
Соотношение сторон                       : 1,294
Соотношение сторон в оригинале           : 1,293
Режим частоты кадров                     : Постоянный
Частота кадров                           : 29,970 кадров/сек
Стандарт вещания                         : NTSC
Цветовое пространство                    : YUV
Субдискретизация насыщенности            : 4:2:0
Битовая глубина                          : 8 бит
Тип развёртки                            : Прогрессивная
Бит/(Пиксели*Кадры)                      : 0.206
Библиотека кодирования                   : x264 core 129 r2230 1cffe9f
Настройки программы                      : cabac=1 / ref=3 / deblock=1:-1:-1 / analyse=0x3:0x113 / me=hex / subme=7 / psy=1 / psy_rd=1.00:0.15 / mixed_ref=1 / me_range=16 / chroma_me=1 / trellis=1 / 8x8dct=1 / cqm=0 / deadzone=21,11 / fast_pskip=1 / chroma_qp_offset=-3 / threads=3 / lookahead_threads=1 / sliced_threads=0 / nr=0 / decimate=1 / interlaced=0 / bluray_compat=0 / constrained_intra=0 / bframes=3 / b_pyramid=2 / b_adapt=1 / b_bias=0 / direct=1 / weightb=1 / open_gop=0 / weightp=2 / keyint=300 / keyint_min=29 / scenecut=40 / intra_refresh=0 / rc_lookahead=40 / rc=2pass / mbtree=1 / bitrate=2090 / ratetol=1.0 / qcomp=0.60 / qpmin=0 / qpmax=69 / qpstep=4 / cplxblur=20.0 / qblur=0.5 / ip_ratio=1.40 / aq=1:1.00
Язык                                     : English
Default                                  : Да
Forced                                   : Нет
Аудио
Идентификатор                            : 2
Формат                                   : AAC
Формат/Информация                        : Advanced Audio Codec
Профиль формата                          : LC
Идентификатор кодека                     : A_AAC
Продолжительность                        : 1 ч. 28 м.
Каналы                                   : 2 канала
Расположение каналов                     : Front: L R
Частота                                  : 48,0 КГц
Метод сжатия                             : С потерями
Задержка видео                           : 9 мс.
Заголовок                                : Russian
Язык                                     : Russian
Default                                  : Да
Forced                                   : Да
Меню
00:00:00.054                             : en:00:00:00.054
Общее
Полное имя                               : D:\movies\1234\Transers_collection\Trancers_2_1991\Trancers_2_The_Return_of_Jack_Deth_1991_eng.aac
Формат                                   : MPEG-4
Профиль формата                          : Base Media / Version 2
Идентификатор кодека                     : mp42
Размер файла                             : 81,8 Мбайт
Продолжительность                        : 1 ч. 28 м.
Режим общего битрейта                    : Переменный
Общий поток                              : 130 Кбит/сек
Дата кодирования                         : UTC 2013-01-21 20:57:53
Дата пометки                             : UTC 2013-01-21 21:05:50
Аудио
Идентификатор                            : 1
Формат                                   : AAC
Формат/Информация                        : Advanced Audio Codec
Профиль формата                          : LC
Идентификатор кодека                     : 40
Продолжительность                        : 1 ч. 28 м.
Вид битрейта                             : Переменный
Битрейт                                  : 128 Кбит/сек
Максимальный битрейт                     : 146 Кбит/сек
Каналы                                   : 2 канала
Расположение каналов                     : Front: L R
Частота                                  : 48,0 КГц
Метод сжатия                             : С потерями
Размер потока                            : 80,8 Мбайт (99%)
Библиотека кодирования                   : Nero AAC codec 1.5.4.0
Настройки программы                      : -br 128000 -lc
Дата кодирования                         : UTC 2013-01-21 20:57:53
Дата пометки                             : UTC 2013-01-21 21:05:50
Меню

Скриншоты

--Трансеры 3: Дет жив / Trancers 3: Deth Lives--«Time waits for no man... unless his name is JACK DETH!» Производство: США, Full Moon Entertainment
Год выпуска: 1992 г.
Жанр: фантастика, боевик
Продолжительность: 01:14:20
Мировая премьера: 14 октября 1992
Перевод: Профессиональный (двухголосый закадровый) [Дмитрий Матвеев и Анна Каменкова]
Оригинальный аудиопоток: английский
Режиссер: С. Кортни Джойнер / C. Courtney Joyner-В ролях: Тим Томерсон, Мелани Смит, Эндрю Робинсон, Тони Пирс, Эд Бикнер, Рэндел Кит, Р. А. Михайлофф, Хантер Вон Лир, Дон Доу, Дуан Энн Биллингс, Хелен Хант, Меган Уорд, Стивен Мачт, Тельма Хопкинс-Описание: Небывалое нашествие трансеров (людей, впавших в транс) поглотило Энджел Сити в 2083 году. Они разгуливают по улицам, заставляя людей прятаться под землей. Профессиональный охотник за трансерами, полицейский из будущего Джек Дэт, получает особое задание, после которого он уже никогда не вернется домой к своей жене Лене.-Качество видео: DVDRip-AVC
Контейнер: MKV
Видео кодек: H.264
Аудио кодек: AAC
Видео: 2505 Кбит/сек, 640x480, 29,970 кадров/сек, 0.247 Бит/(Пиксели*Кадры)
Аудио №1: 128 Кбит/сек, VBR, 2 канала, 48,0 КГц (Русский)
Аудио №2: 128 Кбит/сек, VBR, 2 канала, 48,0 КГц (Английский, отдельно)
Cубтитры: отсутствуют

Рецензия

Джек Детт и трансеры. Часть 3Джек Детт возвращается. На этот раз неуловимого охотника на трансеров силой возвращают на будущее, где герой видит хаос: Лос-Анджелес разрушен, трансеры сильны, как никогда, а люди погибают одни за другим в безжалостной войне. Тогда же руководство отправляет Джека в 2005 год, чтобы тот помешал созданию универсальных трансеров, создаваемых с помощью военных.
Третья часть мало знаменитого франчайза координально отличается от первых двух фильмов по многим параметрам. Во-первых, действие целиком и полностью посвящено трансерам, которые значительно превосходят тех, что мы видели ранее. Теперь они не просто зомбированные существа, здесь им дали значительное преимущество — в транс они могут входить если не с помощью специальной вакцины, то по собственному желанию точно. Большая половина фильма посвящена их созданию, их физиологии, правда они ничто, против яростного Джека Детта, который с оружием на перевес расстреливает врагов (экшн-сцены выполнены на ура).
Во-вторых, здесь отсутствует, так называемая, «семейная драма», что было немного в первом и втором фильме, но взамен этого фильм предлагает нам посмотреть на непростую жизнь Детта. Одно печалит — герой больше не «отжигает», как раньше: он меньше шутит, больше действует. Вроде бы и плохо, но с другой стороны это обуславливает тот факт, что у героя довольно незавидная судьба. Это было и в прежних фильмах, но теперь этот факт встаёт чуть ли не на первый план повествования. Бесконечная охота потихоньку лишает его мирной жизни в прошлом, жены, да и как таковых напарников, ведь это первый фильм в серии, где герой лишается верного напарника. Потому во взгляде Детта чувствуется усталость, а в моменты перестрелок — ярость. Зато сценаристы в этот раз сделали ему поблажку — трансеры сами находят героя, тем самым ребята перефразируют давно известную фразу «беда сама нашла меня».
В третьих, изменилась атмосфера. Фильм более серьёзен, чем прежние части, потому что опять же меньше шуток, а действие большую часть посвящена врагам и жестокой обстановке. В этой части мы лишаемся некоторых героев, но приобретаем новых, например киборга Шарка.
Фильм по-прежнему малобюджетен, но всё же здесь имеется прогресс. Большую часть повествования мы проведём в подземного комплексе по созданию трансеров, и сама по себе локация выполнена на ура. Вот только действии на улице Лос-Анжелеса стало меньше. Хотя, с другой стороны, у фильма малый хронометраж (всего 74 минуты), и на всё это не успеваешь смотреть, или заострить внимания, благодаря чему фильм оставляет после себя ощущение просмотренной серии долгого сериала. Тут даже финал в какой то степени остался открытым, что даёт понять, что франчайз не собирается терять обороты. Вот только как бы сам франчайз не стал от этого хуже.7 из 10

Media Info

Общее
Уникальный идентификатор                 : 222112522354089797565310465299828795192 (0xA71950D71F6A0D1EBDF3B0CE68356738)
Полное имя                               : D:\movies\1234\Transers_collection\Trancers_3_1992\Trancers_3_1992.mkv
Формат                                   : Matroska
Версия формата                           : Version 2
Размер файла                             : 1,37 Гбайт
Продолжительность                        : 1 ч. 14 м.
Общий поток                              : 2636 Кбит/сек
Дата кодирования                         : UTC 2013-01-25 15:43:43
Программа кодирования                    : mkvmerge v5.8.0 ('No Sleep / Pillow') built on Sep  2 2012 15:37:04
Библиотека кодирования                   : libebml v1.2.3 + libmatroska v1.3.0
Видео
Идентификатор                            : 1
Формат                                   : AVC
Формат/Информация                        : Advanced Video Codec
Профиль формата                          : [email protected]
Параметр CABAC формата                   : Да
Параметр ReFrames формата                : 4 кадра
Идентификатор кодека                     : V_MPEG4/ISO/AVC
Продолжительность                        : 1 ч. 14 м.
Номинальный битрейт                      : 2505 Кбит/сек
Ширина                                   : 704 пикселя
Высота                                   : 480 пикселей
Соотношение сторон                       : 4:3
Режим частоты кадров                     : Постоянный
Частота кадров                           : 29,970 кадров/сек
Стандарт вещания                         : NTSC
Цветовое пространство                    : YUV
Субдискретизация насыщенности            : 4:2:0
Битовая глубина                          : 8 бит
Тип развёртки                            : Прогрессивная
Бит/(Пиксели*Кадры)                      : 0.247
Библиотека кодирования                   : x264 core 129 r2230 1cffe9f
Настройки программы                      : cabac=1 / ref=3 / deblock=1:-1:-1 / analyse=0x3:0x113 / me=hex / subme=7 / psy=1 / psy_rd=1.00:0.15 / mixed_ref=1 / me_range=16 / chroma_me=1 / trellis=1 / 8x8dct=1 / cqm=0 / deadzone=21,11 / fast_pskip=1 / chroma_qp_offset=-3 / threads=3 / lookahead_threads=1 / sliced_threads=0 / nr=0 / decimate=1 / interlaced=0 / bluray_compat=0 / constrained_intra=0 / bframes=3 / b_pyramid=2 / b_adapt=1 / b_bias=0 / direct=1 / weightb=1 / open_gop=0 / weightp=2 / keyint=300 / keyint_min=29 / scenecut=40 / intra_refresh=0 / rc_lookahead=40 / rc=2pass / mbtree=1 / bitrate=2505 / ratetol=1.0 / qcomp=0.60 / qpmin=0 / qpmax=69 / qpstep=4 / cplxblur=20.0 / qblur=0.5 / ip_ratio=1.40 / aq=1:1.00
Язык                                     : English
Default                                  : Да
Forced                                   : Нет
Аудио
Идентификатор                            : 2
Формат                                   : AAC
Формат/Информация                        : Advanced Audio Codec
Профиль формата                          : LC
Идентификатор кодека                     : A_AAC
Продолжительность                        : 1 ч. 14 м.
Каналы                                   : 2 канала
Расположение каналов                     : Front: L R
Частота                                  : 48,0 КГц
Метод сжатия                             : С потерями
Задержка видео                           : 15 мс.
Заголовок                                : Russian
Язык                                     : Russian
Default                                  : Да
Forced                                   : Да
Меню
00:00:00.054                             : en:00:00:00.054
Общее
Полное имя                               : D:\movies\1234\Transers_collection\Trancers_3_1992\Trancers_3_1992_eng.aac
Формат                                   : ADTS
Формат/Информация                        : Audio Data Transport Stream
Размер файла                             : 69,4 Мбайт
Режим общего битрейта                    : Переменный
Аудио
Формат                                   : AAC
Формат/Информация                        : Advanced Audio Codec
Версия формата                           : Version 4
Профиль формата                          : LC
Вид битрейта                             : Переменный
Каналы                                   : 2 канала
Расположение каналов                     : Front: L R
Частота                                  : 48,0 КГц
Метод сжатия                             : С потерями
Размер потока                            : 69,4 Мбайт (100%)

Скриншоты

--Трансеры 4: Пиковый валет + бонусы / Trancers 4: Jack of swords + bonuses--«Time waits for no man... Deth Lives...» Производство: США, Castel Film Romania, Full Moon Entertainment
Год выпуска: 1993 г.
Жанр: фантастика, боевик
Продолжительность: 01:14:31
Мировая премьера: 2 февраля 1994
Перевод: Авторский (одноголосый закадровый) [Михаил Иванов]
Оригинальный аудиопоток: английский
Режиссер: Дэвид Наттер / David Nutter-В ролях: Тим Томерсон, Стейси Рэндал, Стивен Макт, Терри Айвенс, Ион Гайдук, Тай Миллер, Марк Арнольд, Клэйб Хартли, Элан Оппенхаймер, Локлин Манро, Джефф Молдован, Адриан Пинтеа-Описание: Год 2150. Неустрашимый Джек Дэт отправляется в штат Канзас, где вступает в схватку с жутким соляноидом. Очередная ошибка "машины времени", и наш герой в сером плаще обнаруживает себя в другом измерении, во времени похожем на средневековье, где битвы происходят посредством мечей. Здесь безобразничают трансеры, занимаясь вульгарным вампиризмом (то есть сосут кровушку у кого ни попадя). Джек помогает повстанцам в борьбе против главного кровопивца Калибана, используя его сына, запавшего на предводительницу повстанцев Шейолин.-Качество видео: DVDRip-AVC
Контейнер: MKV
Видео кодек: H.264
Аудио кодек: AAC
Видео: 2500 Кбит/сек, 630x480, 23,976 кадра/сек, 0.309 Бит/(Пиксели*Кадры)
Аудио №1: 128 Кбит/сек, VBR, 2 канала, 48,0 КГц (Русский)
Аудио №2: 128 Кбит/сек, VBR, 2 канала, 48,0 КГц (Английский, отдельно)
Cубтитры: отсутствуют

Рецензия

Магический трансИначе как лучшей и наиболее продуманной франшизой в портфолио Full Moon «Трансеры» назвать нельзя. Да, Full Moon всегда славились своими дешёвыми подделками — наиболее всего кинокомпания известна зрителям благодаря своим кукольным франшизам. Однако, как бы то ни было, во все времена своего существования в Full Moon никогда не забывали и про научную фантастику. Более того, этому жанру уделялось зачастую куда как больше внимания, времени и денежных средств. Вот и «Трансеры» выглядят как отполированная франшиза-любимчик кинокомпании. Казалось бы, к четвёртой части франшизы имеют свойство неминуемо деградировать, превращаясь в какую-то странную сумятицу ни о чём и ни про что, слабо связанную с прошлыми фильмами. Случай с «Трансерами» тем более показательный.
Первое, что стоит сказать о тетраквеле «Трансеров», так это даже не о том, что Тим Томерсон остался «в седле», снова сыграв роль полицейского во времени Джека Дета, а о резкой смене стилистики всей франшизы. Во-первых, зрители узнают о том, что в будущем появились враги не менее опасные, чем трансеры — странные существа, именуемые соленоидами (правда, конкретно о них четвёртый фильм не ведает). Во-вторых, из-за сбоя при запуске машины времени Джек Дет оказывается запертым во временной ловушке и попадает… в альтернативную реальность, некогда захваченную особо опасным подвидом трансеров. Да, вы не ослышались. Если в предыдущих картинах для Джека было обычным делом махнуть на пару столетий в будущее, а потом вернуться в прошлое, этак в двадцатый век, то новый фильм раскрывает перед зрителем новые же «карты». Оказывается, сами создатели машины времени не ведали о том, что она с той же лёгкостью способна отправлять людей не только путешествовать во времени, но и в параллелях пространства!
Джек попадает в Орфей, один из множества параллельных миров, сильно напоминающий Средневековье. Зомби к подобному антуражу не приучены, понятное дело, а потому в фильме трансеры предстают перед зрителями в новом обличии… вампирами! Как водится, в далёком прошлом (если судить по антуражу Орфея) высокие технологии имеют нехорошее свойство сбоить, а поэтому навороченные гаджеты Джека впервые за историю франшизы оказываются не в силах причинить какой-нибудь ощутимый вред трансерам. Здесь всё обстоит куда как проще и в той же мере интереснее: вампиры-трансеры падают замертво только после крепко всаженного в грудь осинового кола. Смена антуража не может не радовать: после бесконечных томных пейзажей будущего, претерпевшего масштабную катастрофу (развалины, бетонные стены, трущобы) и подобных же эскизов прошлого — серые здания, дым, все эти мрачные тона, «выход» четвёртого фильма на природу видится логическим шагом, предпринятым со стороны Full Moon, дарующим франшизе глоток свежего лесного воздуха.
В мире Средневековья, как вы, наверное, уже догадались, никуда без магии. Магия в фэнтези всегда удачно замещала высокие технологии, ибо с её помощью можно делать такие вещи, на которые современная техника ещё очень не скоро будет способна. А потому Джек, посланец из будущего, неожиданно попавший в мир, где вместо машин люди передвигаются на лошадях, а вместо технологий практикуют магию (здесь она, по всей видимости, считается обычным делом) вызывает у того поначалу длительное недоумение. Самое приятное в «Трансерах 4» даже не новый антураж, так удачно пришедший на смену поднадоевшему старому, а в некотором роде возвращение к истокам франшизы. Дело в том, что Full Moon вернули в фильм юмор. Да, предыдущие два сиквела также способны были повеселить зрителя, но только в отдельных моментах, чтобы разбавить всю серьёзность происходящего. Однако по большей части чувствовался в них уклон в сторону драмы со всей присущей фантастическим драмам тяжёлой атмосферой. В таком свете особенно приятно говорить о том, что «Трансеры 4» — всё тот же искренний, весёлый фильм, как и самая первая часть, который удачно высмеивает ситуацию, в которой оказался вечно тревожный Джек Дет, охотник за трансерами.
Вердикт. Неожиданно четвёртая часть отложила в сторону трагичные пейзажи мира будущего, пережившего коллапс, и пейзажи томного, мрачного мира прошлого, променяв их на зелёные поля и леса Средневековья альтернативной реальности. В новом антураже «Трансеры 4» смотрятся более насыщенно и красочно, словно перед тобой сказка, а не серьёзная научно-фантастическая драма, пусть и разбавленная толикой весёлого юмора.8,5 из 10

Media Info

Общее
Уникальный идентификатор                 : 217536050220201166311563564586208456467 (0xA3A7EB57EB28310A83EAD5BB582DEF13)
Полное имя                               : D:\movies\1234\Transers_collection\Trancers_4_Jack of Swords_1994\Trancers_4_Jack of Swords_1994.mkv
Формат                                   : Matroska
Версия формата                           : Version 2
Размер файла                             : 1,37 Гбайт
Продолжительность                        : 1 ч. 14 м.
Общий поток                              : 2630 Кбит/сек
Дата кодирования                         : UTC 2013-01-25 16:14:53
Программа кодирования                    : mkvmerge v5.8.0 ('No Sleep / Pillow') built on Sep  2 2012 15:37:04
Библиотека кодирования                   : libebml v1.2.3 + libmatroska v1.3.0
Видео
Идентификатор                            : 1
Формат                                   : AVC
Формат/Информация                        : Advanced Video Codec
Профиль формата                          : [email protected]
Параметр CABAC формата                   : Да
Параметр ReFrames формата                : 4 кадра
Идентификатор кодека                     : V_MPEG4/ISO/AVC
Продолжительность                        : 1 ч. 14 м.
Номинальный битрейт                      : 2500 Кбит/сек
Ширина                                   : 704 пикселя
Высота                                   : 480 пикселей
Соотношение сторон                       : 4:3
Соотношение сторон в оригинале           : 4:3
Режим частоты кадров                     : Постоянный
Частота кадров                           : 23,976 кадра/сек
Стандарт вещания                         : NTSC
Цветовое пространство                    : YUV
Субдискретизация насыщенности            : 4:2:0
Битовая глубина                          : 8 бит
Тип развёртки                            : Прогрессивная
Бит/(Пиксели*Кадры)                      : 0.309
Библиотека кодирования                   : x264 core 129 r2230 1cffe9f
Настройки программы                      : cabac=1 / ref=3 / deblock=1:-1:-1 / analyse=0x3:0x113 / me=hex / subme=7 / psy=1 / psy_rd=1.00:0.15 / mixed_ref=1 / me_range=16 / chroma_me=1 / trellis=1 / 8x8dct=1 / cqm=0 / deadzone=21,11 / fast_pskip=1 / chroma_qp_offset=-3 / threads=3 / lookahead_threads=1 / sliced_threads=0 / nr=0 / decimate=1 / interlaced=0 / bluray_compat=0 / constrained_intra=0 / bframes=3 / b_pyramid=2 / b_adapt=1 / b_bias=0 / direct=1 / weightb=1 / open_gop=0 / weightp=2 / keyint=240 / keyint_min=23 / scenecut=40 / intra_refresh=0 / rc_lookahead=40 / rc=2pass / mbtree=1 / bitrate=2500 / ratetol=1.0 / qcomp=0.60 / qpmin=0 / qpmax=69 / qpstep=4 / cplxblur=20.0 / qblur=0.5 / ip_ratio=1.40 / aq=1:1.00
Язык                                     : English
Default                                  : Да
Forced                                   : Нет
Аудио
Идентификатор                            : 2
Формат                                   : AAC
Формат/Информация                        : Advanced Audio Codec
Профиль формата                          : LC
Идентификатор кодека                     : A_AAC
Продолжительность                        : 1 ч. 14 м.
Каналы                                   : 2 канала
Расположение каналов                     : Front: L R
Частота                                  : 48,0 КГц
Метод сжатия                             : С потерями
Задержка видео                           : 9 мс.
Заголовок                                : Russian
Язык                                     : Russian
Default                                  : Да
Forced                                   : Да
Меню
00:00:00.054                             : en:00:00:00.054
Общее
Полное имя                               : D:\movies\1234\Transers_collection\Trancers_4_Jack of Swords_1994\Trancers_4_Jack of Swords_1994_eng.aac
Формат                                   : MPEG-4
Профиль формата                          : Base Media / Version 2
Идентификатор кодека                     : mp42
Размер файла                             : 69,1 Мбайт
Продолжительность                        : 1 ч. 14 м.
Режим общего битрейта                    : Переменный
Общий поток                              : 130 Кбит/сек
Дата кодирования                         : UTC 2013-01-25 00:53:38
Дата пометки                             : UTC 2013-01-25 01:02:53
Аудио
Идентификатор                            : 1
Формат                                   : AAC
Формат/Информация                        : Advanced Audio Codec
Профиль формата                          : LC
Идентификатор кодека                     : 40
Продолжительность                        : 1 ч. 14 м.
Вид битрейта                             : Переменный
Битрейт                                  : 128 Кбит/сек
Максимальный битрейт                     : 157 Кбит/сек
Каналы                                   : 2 канала
Расположение каналов                     : Front: L R
Частота                                  : 48,0 КГц
Метод сжатия                             : С потерями
Размер потока                            : 68,2 Мбайт (99%)
Библиотека кодирования                   : Nero AAC codec 1.5.4.0
Настройки программы                      : -br 128000 -lc
Дата кодирования                         : UTC 2013-01-25 00:53:38
Дата пометки                             : UTC 2013-01-25 01:02:53
Меню
Общее
Уникальный идентификатор                 : 193130270684110650733825382587381442656 (0x914B898284E6B0F89B6B75EF2E3DE860)
Полное имя                               : D:\movies\1234\Transers_collection\Trancers_4_Jack of Swords_1994\Videozone.mkv
Формат                                   : Matroska
Версия формата                           : Version 2
Размер файла                             : 98,6 Мбайт
Продолжительность                        : 8 м. 26 с.
Общий поток                              : 1633 Кбит/сек
Дата кодирования                         : UTC 2013-01-30 19:58:08
Программа кодирования                    : mkvmerge v5.8.0 ('No Sleep / Pillow') built on Sep  2 2012 15:37:04
Библиотека кодирования                   : libebml v1.2.3 + libmatroska v1.3.0
Видео
Идентификатор                            : 1
Формат                                   : AVC
Формат/Информация                        : Advanced Video Codec
Профиль формата                          : [email protected]
Параметр CABAC формата                   : Да
Параметр ReFrames формата                : 4 кадра
Идентификатор кодека                     : V_MPEG4/ISO/AVC
Продолжительность                        : 8 м. 26 с.
Номинальный битрейт                      : 1500 Кбит/сек
Ширина                                   : 704 пикселя
Высота                                   : 464 пикселя
Соотношение сторон                       : 4:3
Режим частоты кадров                     : Постоянный
Частота кадров                           : 29,970 кадров/сек
Цветовое пространство                    : YUV
Субдискретизация насыщенности            : 4:2:0
Битовая глубина                          : 8 бит
Тип развёртки                            : Прогрессивная
Бит/(Пиксели*Кадры)                      : 0.153
Библиотека кодирования                   : x264 core 129 r2230 1cffe9f
Настройки программы                      : cabac=1 / ref=3 / deblock=1:-1:-1 / analyse=0x3:0x113 / me=hex / subme=7 / psy=1 / psy_rd=1.00:0.15 / mixed_ref=1 / me_range=16 / chroma_me=1 / trellis=1 / 8x8dct=1 / cqm=0 / deadzone=21,11 / fast_pskip=1 / chroma_qp_offset=-3 / threads=3 / lookahead_threads=1 / sliced_threads=0 / nr=0 / decimate=1 / interlaced=0 / bluray_compat=0 / constrained_intra=0 / bframes=3 / b_pyramid=2 / b_adapt=1 / b_bias=0 / direct=1 / weightb=1 / open_gop=0 / weightp=2 / keyint=300 / keyint_min=29 / scenecut=40 / intra_refresh=0 / rc_lookahead=40 / rc=2pass / mbtree=1 / bitrate=1500 / ratetol=1.0 / qcomp=0.60 / qpmin=0 / qpmax=69 / qpstep=4 / cplxblur=20.0 / qblur=0.5 / ip_ratio=1.40 / aq=1:1.00
Язык                                     : English
Default                                  : Да
Forced                                   : Нет
Аудио
Идентификатор                            : 2
Формат                                   : AAC
Формат/Информация                        : Advanced Audio Codec
Профиль формата                          : LC
Идентификатор кодека                     : A_AAC
Продолжительность                        : 8 м. 26 с.
Каналы                                   : 2 канала
Расположение каналов                     : Front: L R
Частота                                  : 48,0 КГц
Метод сжатия                             : С потерями
Задержка видео                           : 9 мс.
Заголовок                                : English
Default                                  : Да
Forced                                   : Да
Меню
00:00:00.054                             : en:00:00:00.054

Скриншоты

--Трансеры 5: Молниеносный Дэт + бонусы / Trancers 5: Sudden Deth + bonuses-- Производство: США, Full Moon Entertainment
Год выпуска: 1994 г.
Жанр: фантастика, боевик
Продолжительность: 01:09:33
Мировая премьера: 9 ноября 1994
Перевод: Любительский (одноголосый закадровый)
Оригинальный аудиопоток: английский
Режиссер: Дэвид Наттер / David Nutter-В ролях: Тим Томерсон, Стэйси Рэндалл, Тай Миллер, Терри Айвенс, Марк Арнольд, Клэйб Хартли, Алан Оппенхеймер, Джефф Молдован, Стивен Мачт-Описание: Джек Дэт, фамилия которого по-английски звучит также как слово "смерть", снова попадает в другое измерение, в мир под названием Орфей. Борьба с трансерами продолжается. Хотя главного злодея Калибана вроде убили, но сами благородные кровопийцы, затаившись, ждут своего часа. Им удается оживить Калибана, а Джек должен найти в замке Невыносимого Ужаса бриллиант, который поможет ему вернуться в свой мир. Ему оказывает поддержку переметнувшийся на сторону повстанцев сын Калибана.-Качество видео: DVDRip-AVC
Контейнер: MKV
Видео кодек: H.264
Аудио кодек: AAC
Видео: 2570 Кбит/сек, 640x480, 23,976 кадра/сек, 0.317 Бит/(Пиксели*Кадры)
Аудио №1: 128 Кбит/сек, VBR, 2 канала, 48,0 КГц (Русский)
Аудио №2: 128 Кбит/сек, VBR, 2 канала, 48,0 КГц (Английский, отдельно)
Cубтитры: отсутствуют

Рецензия

Выход из трансаДля поклонников франшизы «Трансеры» пятый фильм являет собой весьма трогательное, прощальное откровение из жизни уходящего на заслуженный покой Джека Дета. Сюжетно «Трансеры 5» продолжают четвёртый фильм: Джек до сих пор заперт в мире под названием Орфей, но не теряет надежды вернуться домой, в его мир — в Лос-Анджелес будущего. Конечно, со стороны Full Moon было бы великим преступлением в итоге оставить одного из культовых своих героев доживать последние дни в магическом мире, бесконечно далёком от его родины. Засим очередное продолжение истории Джека видится мне логическим и никоим образом не лишним.
Приятно даже не то, что пятый фильм открывает зрителю очередной виток в развитии характера Джека Дета, человека, уставшего от вечной охоты за трансерами. Приятно то, как показательно и любовно он это дело обставляет. Зарождение новой идеи — о том, что трансер вполне способен бороться с собственной сущностью и в кои-то веки пытаться жить как нормальный человек, началось в прошлом фильме. В «Трансерах 5» мы видим продолжение этой идеи, которая, что немаловажно, по-настоящему раскрывается зрителю через разрушение стереотипа самого Джека о том, что же представляют собой трансеры. Главное откровение пятого фильма: не всех трансеров следует убивать, как полагал большую часть его сознательной жизни Джек. Как вид, трансеры имеют полное право на существование, если, конечно, они не преисполнены наполеоновских амбиций по захвату цивилизованного мира, какими представали перед нами их собратья в первых трёх фильмах. Мир магии Орфей многому научил Джека, человека, который искренне полагал, что в этой жизни его уже ничем нельзя не удивить.
В действительности пятое по счёту приключение Джека из тех, которые были показаны в фильмах франшизы, ведь, если верить мифологии «Трансеров», Джек много больше сражался с трансерами, получилось наиболее полное и осмысленное. Особенно важно это осознавать тому человеку, которого судьба Джека заботила на протяжении просмотра предыдущих четырёх фильмов, которые, что редкость для Full Moon, были тесно переплетены между собой общим сюжетом и логически продолжали друг друга, без ухода в дебри. Вот и я, безусловно, просто не мог отнестись к пятому фильму неоднозначно. Видно, что к его созданию в Full Moon подходили ответственно, со знанием дела.
Вердикт. Если вкратце, то «Трансеры 5: Молниеносный Дет» представляют собой интересный, интригующий, где-то захватывающий, где-то смешной, но что самое главное — при этом не лишённый смысла и некоего философского подтекста, добрый и искренний фильм, предназначенный только для тех людей, кого судьба Джека Дета не оставляла равнодушным на протяжении всей франшизы.9,5 из 10

Media Info

Общее
Уникальный идентификатор                 : 185344124256392497788404608975411693343 (0x8B6FFADA367338A8851FC21A28C9471F)
Полное имя                               : D:\movies\1234\Transers_collection\Trancers_5_Sudden_Deth_1994\Trancers_5_Sudden_Deth_1994.mkv
Формат                                   : Matroska
Версия формата                           : Version 2
Размер файла                             : 1,37 Гбайт
Продолжительность                        : 1 ч. 12 м.
Общий поток                              : 2700 Кбит/сек
Дата кодирования                         : UTC 2013-01-25 16:20:41
Программа кодирования                    : mkvmerge v5.8.0 ('No Sleep / Pillow') built on Sep  2 2012 15:37:04
Библиотека кодирования                   : libebml v1.2.3 + libmatroska v1.3.0
Видео
Идентификатор                            : 1
Формат                                   : AVC
Формат/Информация                        : Advanced Video Codec
Профиль формата                          : [email protected]
Параметр CABAC формата                   : Да
Параметр ReFrames формата                : 4 кадра
Идентификатор кодека                     : V_MPEG4/ISO/AVC
Продолжительность                        : 1 ч. 12 м.
Номинальный битрейт                      : 2570 Кбит/сек
Ширина                                   : 704 пикселя
Высота                                   : 480 пикселей
Соотношение сторон                       : 4:3
Режим частоты кадров                     : Постоянный
Частота кадров                           : 23,976 кадра/сек
Стандарт вещания                         : NTSC
Цветовое пространство                    : YUV
Субдискретизация насыщенности            : 4:2:0
Битовая глубина                          : 8 бит
Тип развёртки                            : Прогрессивная
Бит/(Пиксели*Кадры)                      : 0.317
Библиотека кодирования                   : x264 core 129 r2230 1cffe9f
Настройки программы                      : cabac=1 / ref=3 / deblock=1:-1:-1 / analyse=0x3:0x113 / me=hex / subme=7 / psy=1 / psy_rd=1.00:0.15 / mixed_ref=1 / me_range=16 / chroma_me=1 / trellis=1 / 8x8dct=1 / cqm=0 / deadzone=21,11 / fast_pskip=1 / chroma_qp_offset=-3 / threads=3 / lookahead_threads=1 / sliced_threads=0 / nr=0 / decimate=1 / interlaced=0 / bluray_compat=0 / constrained_intra=0 / bframes=3 / b_pyramid=2 / b_adapt=1 / b_bias=0 / direct=1 / weightb=1 / open_gop=0 / weightp=2 / keyint=240 / keyint_min=23 / scenecut=40 / intra_refresh=0 / rc_lookahead=40 / rc=2pass / mbtree=1 / bitrate=2570 / ratetol=1.0 / qcomp=0.60 / qpmin=0 / qpmax=69 / qpstep=4 / cplxblur=20.0 / qblur=0.5 / ip_ratio=1.40 / aq=1:1.00
Язык                                     : English
Default                                  : Да
Forced                                   : Нет
Аудио
Идентификатор                            : 2
Формат                                   : AAC
Формат/Информация                        : Advanced Audio Codec
Профиль формата                          : LC
Идентификатор кодека                     : A_AAC
Продолжительность                        : 1 ч. 12 м.
Каналы                                   : 2 канала
Расположение каналов                     : Front: L R
Частота                                  : 48,0 КГц
Метод сжатия                             : С потерями
Задержка видео                           : 9 мс.
Заголовок                                : Russian
Язык                                     : Russian
Default                                  : Да
Forced                                   : Да
Меню
00:00:00.054                             : en:00:00:00.054
Общее
Полное имя                               : D:\movies\1234\Transers_collection\Trancers_5_Sudden_Deth_1994\Trancers_5_Sudden_Deth_1994_eng.aac
Формат                                   : MPEG-4
Профиль формата                          : Base Media / Version 2
Идентификатор кодека                     : mp42
Размер файла                             : 67,3 Мбайт
Продолжительность                        : 1 ч. 12 м.
Режим общего битрейта                    : Переменный
Общий поток                              : 130 Кбит/сек
Дата кодирования                         : UTC 2013-01-25 09:24:31
Дата пометки                             : UTC 2013-01-25 09:30:24
Аудио
Идентификатор                            : 1
Формат                                   : AAC
Формат/Информация                        : Advanced Audio Codec
Профиль формата                          : LC
Идентификатор кодека                     : 40
Продолжительность                        : 1 ч. 12 м.
Вид битрейта                             : Переменный
Битрейт                                  : 128 Кбит/сек
Максимальный битрейт                     : 148 Кбит/сек
Каналы                                   : 2 канала
Расположение каналов                     : Front: L R
Частота                                  : 48,0 КГц
Метод сжатия                             : С потерями
Размер потока                            : 66,4 Мбайт (99%)
Библиотека кодирования                   : Nero AAC codec 1.5.4.0
Настройки программы                      : -br 128000 -lc
Дата кодирования                         : UTC 2013-01-25 09:24:31
Дата пометки                             : UTC 2013-01-25 09:30:24
Меню
Общее
Уникальный идентификатор                 : 250224618905237895297430316932670109161 (0xBC3F82360CFA9767B99BAD57A20735E9)
Полное имя                               : D:\movies\pirat.ca\1234\Transers_collection\Trancers_5_Sudden_Deth_1994\Videozone.mkv
Формат                                   : Matroska
Версия формата                           : Version 2
Размер файла                             : 97,5 Мбайт
Продолжительность                        : 8 м. 21 с.
Общий поток                              : 1631 Кбит/сек
Дата кодирования                         : UTC 2013-01-30 19:55:47
Программа кодирования                    : mkvmerge v5.8.0 ('No Sleep / Pillow') built on Sep  2 2012 15:37:04
Библиотека кодирования                   : libebml v1.2.3 + libmatroska v1.3.0
Видео
Идентификатор                            : 1
Формат                                   : AVC
Формат/Информация                        : Advanced Video Codec
Профиль формата                          : [email protected]
Параметр CABAC формата                   : Да
Параметр ReFrames формата                : 4 кадра
Идентификатор кодека                     : V_MPEG4/ISO/AVC
Продолжительность                        : 8 м. 21 с.
Номинальный битрейт                      : 1500 Кбит/сек
Ширина                                   : 704 пикселя
Высота                                   : 480 пикселей
Соотношение сторон                       : 4:3
Режим частоты кадров                     : Постоянный
Частота кадров                           : 29,970 кадров/сек
Стандарт вещания                         : NTSC
Цветовое пространство                    : YUV
Субдискретизация насыщенности            : 4:2:0
Битовая глубина                          : 8 бит
Тип развёртки                            : Прогрессивная
Бит/(Пиксели*Кадры)                      : 0.148
Библиотека кодирования                   : x264 core 129 r2230 1cffe9f
Настройки программы                      : cabac=1 / ref=3 / deblock=1:-1:-1 / analyse=0x3:0x113 / me=hex / subme=7 / psy=1 / psy_rd=1.00:0.15 / mixed_ref=1 / me_range=16 / chroma_me=1 / trellis=1 / 8x8dct=1 / cqm=0 / deadzone=21,11 / fast_pskip=1 / chroma_qp_offset=-3 / threads=3 / lookahead_threads=1 / sliced_threads=0 / nr=0 / decimate=1 / interlaced=0 / bluray_compat=0 / constrained_intra=0 / bframes=3 / b_pyramid=2 / b_adapt=1 / b_bias=0 / direct=1 / weightb=1 / open_gop=0 / weightp=2 / keyint=300 / keyint_min=29 / scenecut=40 / intra_refresh=0 / rc_lookahead=40 / rc=2pass / mbtree=1 / bitrate=1500 / ratetol=1.0 / qcomp=0.60 / qpmin=0 / qpmax=69 / qpstep=4 / cplxblur=20.0 / qblur=0.5 / ip_ratio=1.40 / aq=1:1.00
Язык                                     : English
Default                                  : Да
Forced                                   : Нет
Аудио
Идентификатор                            : 2
Формат                                   : AAC
Формат/Информация                        : Advanced Audio Codec
Профиль формата                          : LC
Идентификатор кодека                     : A_AAC
Продолжительность                        : 8 м. 21 с.
Каналы                                   : 2 канала
Расположение каналов                     : Front: L R
Частота                                  : 48,0 КГц
Метод сжатия                             : С потерями
Задержка видео                           : 9 мс.
Заголовок                                : Russian, rus
Язык                                     : Russian
Default                                  : Да
Forced                                   : Да
Меню
00:00:00.054                             : en:00:00:00.054

Скриншоты

--Трансеры 6 / Trancers 6-- Производство: США, Full Moon Entertainment
Год выпуска: 2002 г.
Жанр: фантастика, боевик
Продолжительность: 01:20:04
Мировая премьера: 23 июля 2002
Перевод: Любительский (одноголосый закадровый)
Оригинальный аудиопоток: английский
Режиссер: Джей Велфел / Jay Woelfel-В ролях: Зетте Салливан, Дженнифер Капо, Роберт Донован, Тимоти Приндл, Джир Джон, Дженнифер Кантрелл, Бен Бар, Джеймс Р. Хилтон, Грегори Ли Кенион-Описание: Джек Дет перемещается в прошлое и проникает в тело своей собственной дочери Жозефины, чтобы снова спасти мир от ужасных «трансеров». Но сражаться с такими могущественными противниками в женском теле оказывается не так просто…-Качество видео: DVDRip-AVC
Контейнер: MKV
Видео кодек: H.264
Аудио кодек: AAC
Видео: 2317 Кбит/сек, 704x528, 23,976 кадра/сек, 0.260 Бит/(Пиксели*Кадры)
Аудио №1: 128 Кбит/сек, VBR, 2 канала, 48,0 КГц (Русский)
Аудио №2: 128 Кбит/сек, VBR, 2 канала, 48,0 КГц (Английский, отдельно)
Cубтитры: отсутствуют

Рецензия

Трансеры, да не теС выхода 5 части прошло добрых 7 лет, что говорило о том, что в биографии Джека Детта поставлен жирный крест, но боссы студии High Moon посчитали, что франчайз можно ещё «помучить». Результатом стало шестая часть серии, которую и за сиквел прошлых частей принять сложно.
Джек Детт вновь отправляется в прошлое, и на этот раз в тело своей дочери Жозефины, с целью раскрыть новый план коварных трансеров по захвату мира. И так получилось, что в этой ситуации, Джек должен не только уничтожить врагов, но и спасти от смерти свою дочь.
Смотря на всё это, понимаешь, что зря снимали это кино, ибо ничего существенного во франчайз не приносит, а своим сюжетом он и вовсе противоречит прошлым частям. Если ещё в 4-ом фильме нам сказали, что все трансеры истреблены, то в 6-ой их заново начинают показывать. Есть плюс — здесь практически те же трансеры, что и в 1-3 фильмах, что несомненно радует, к тому же в финале нам дают понять, кто на самом деле виновен в их распространении, что приносит в серию ещё больше интриги.
Так получилось, что Тим Томерсон больше не мог сниматься, и потому авторам пришлось в буквальном смысле выкручиваться, пригласив на место него неизвестную актрису, а заодно и подшутив на героем, запихав его разум в разум собственной дочери. Изобретательно, но вот актриса, к сожалению, только и делает, что неумело копирует образ, созданный Томерсоном. Хотя, Джек Детт остался по-прежнему интересным персонажем, но тут его образ испортил неумелые кривляния актрисы.
Само кино достаточно слабое. Постановкой оно напоминает дешёвый сай-фай фильм, и хотя сама серия довольно дешёвая, именно тут мы видим, к чему приводит чрезмерное использование плохих спеэффектов. Сценарий неоригинальный, некоторые фишки прямиком взяты из прошлых частей, а в середине кино в буквальном смысле провисает — сплошные диалоги и раскрытия планов злодеев, что кроме скуки ничего не вызывает. Экшн-сцены тоже есть, но выглядят они не динамично, и неинтересно.
Несмотря на все минусы, фильм в каком то смысле даёт новое направление в развитие серии, но всё дело в том, что кино так и не продолжили, а значит столь интересная серия закончилась буквально ничем, из чего следует вывод, что не следовало бы и дальше мучить франчайз.4 из 10

Media Info

Общее
Уникальный идентификатор                 : 212614352298868454081069130698575440916 (0x9FF408E6ADEF3C5395C4E7B1C60DEC14)
Полное имя                               : D:\movies\1234\Transers_collection\Trancers_6_2002\Trancers_6_2002.mkv
Формат                                   : Matroska
Версия формата                           : Version 2
Размер файла                             : 1,37 Гбайт
Продолжительность                        : 1 ч. 20 м.
Общий поток                              : 2446 Кбит/сек
Дата кодирования                         : UTC 2013-01-29 20:18:19
Программа кодирования                    : mkvmerge v5.8.0 ('No Sleep / Pillow') built on Sep  2 2012 15:37:04
Библиотека кодирования                   : libebml v1.2.3 + libmatroska v1.3.0
Видео
Идентификатор                            : 1
Формат                                   : AVC
Формат/Информация                        : Advanced Video Codec
Профиль формата                          : [email protected]
Параметр CABAC формата                   : Да
Параметр ReFrames формата                : 4 кадра
Идентификатор кодека                     : V_MPEG4/ISO/AVC
Продолжительность                        : 1 ч. 20 м.
Номинальный битрейт                      : 2317 Кбит/сек
Ширина                                   : 704 пикселя
Высота                                   : 528 пикселей
Соотношение сторон                       : 4:3
Режим частоты кадров                     : Постоянный
Частота кадров                           : 23,976 кадра/сек
Цветовое пространство                    : YUV
Субдискретизация насыщенности            : 4:2:0
Битовая глубина                          : 8 бит
Тип развёртки                            : Прогрессивная
Бит/(Пиксели*Кадры)                      : 0.260
Библиотека кодирования                   : x264 core 129 r2230 1cffe9f
Настройки программы                      : cabac=1 / ref=3 / deblock=1:-1:-1 / analyse=0x3:0x113 / me=hex / subme=7 / psy=1 / psy_rd=1.00:0.15 / mixed_ref=1 / me_range=16 / chroma_me=1 / trellis=1 / 8x8dct=1 / cqm=0 / deadzone=21,11 / fast_pskip=1 / chroma_qp_offset=-3 / threads=3 / lookahead_threads=1 / sliced_threads=0 / nr=0 / decimate=1 / interlaced=0 / bluray_compat=0 / constrained_intra=0 / bframes=3 / b_pyramid=2 / b_adapt=1 / b_bias=0 / direct=1 / weightb=1 / open_gop=0 / weightp=2 / keyint=240 / keyint_min=23 / scenecut=40 / intra_refresh=0 / rc_lookahead=40 / rc=2pass / mbtree=1 / bitrate=2317 / ratetol=1.0 / qcomp=0.60 / qpmin=0 / qpmax=69 / qpstep=4 / cplxblur=20.0 / qblur=0.5 / ip_ratio=1.40 / aq=1:1.00
Язык                                     : English
Default                                  : Да
Forced                                   : Нет
Аудио
Идентификатор                            : 2
Формат                                   : AAC
Формат/Информация                        : Advanced Audio Codec
Профиль формата                          : LC
Идентификатор кодека                     : A_AAC
Продолжительность                        : 1 ч. 20 м.
Каналы                                   : 2 канала
Расположение каналов                     : Front: L R
Частота                                  : 48,0 КГц
Метод сжатия                             : С потерями
Задержка видео                           : 9 мс.
Заголовок                                : Russian
Язык                                     : Russian
Default                                  : Да
Forced                                   : Да
Меню
00:00:00.054                             : en:00:00:00.054
Общее
Полное имя                               : D:\movies\1234\Transers_collection\Trancers_6_2002\Trancers_6_2002_eng.aac
Формат                                   : MPEG-4
Профиль формата                          : Base Media / Version 2
Идентификатор кодека                     : mp42
Размер файла                             : 74,2 Мбайт
Продолжительность                        : 1 ч. 20 м.
Режим общего битрейта                    : Переменный
Общий поток                              : 130 Кбит/сек
Дата кодирования                         : UTC 2013-02-06 19:05:42
Дата пометки                             : UTC 2013-02-06 19:18:03
Аудио
Идентификатор                            : 1
Формат                                   : AAC
Формат/Информация                        : Advanced Audio Codec
Профиль формата                          : LC
Идентификатор кодека                     : 40
Продолжительность                        : 1 ч. 20 м.
Вид битрейта                             : Переменный
Битрейт                                  : 128 Кбит/сек
Максимальный битрейт                     : 188 Кбит/сек
Каналы                                   : 2 канала
Расположение каналов                     : Front: L R
Частота                                  : 48,0 КГц
Метод сжатия                             : С потерями
Размер потока                            : 73,3 Мбайт (99%)
Библиотека кодирования                   : Nero AAC codec 1.5.4.0
Настройки программы                      : -br 128000 -lc
Дата кодирования                         : UTC 2013-02-06 19:05:43
Дата пометки                             : UTC 2013-02-06 19:18:03
Меню

Скриншоты

Яндекс.Метрика
Рейтинг@Mail.ru