[ Сегодня на трекере фрилич! Идет свободное скачивание без начисления Download ]

Гарри Поттер и Кубок огня / Harry Potter and the Goblet of Fire (Майк Ньюэлл / Mike Newell) [2005 г., Приключения, Комедия, Семейный, Фэнтези, Триллер., BDRip 720p ] Dub + Sub (Rus, Eng)

 

Создавать темы 09-Фев-2015 08:22

-Гарри Поттер и Кубок огня / Harry Potter and the Goblet of Fire-- Производство: Великобритания, США
Год выпуска: 2005 г.
Жанр: Приключения, Комедия, Семейный, Фэнтези, Триллер.
Продолжительность: 02:37:05
Мировая премьера: 6 ноября 2005
Российская премьера: 22 декабря 2005, «Каро-Премьер»
Дата выхода DVD: 23 июня 2009, «Юниверсал Пикчерс Рус»
Дата выхода Blu-Ray: 23 декабря 2008, «Юниверсал Пикчерс Рус»
Перевод: Профессиональный (полное дублирование) [лицензия ]
Режиссер: Майк Ньюэлл / Mike Newell-В ролях: Дэниэл Рэдклифф, Эмма Уотсон, Руперт Гринт, Алан Рикман, Эрик Сайкес, Тимоти Сполл, Дэвид Теннант, Марк Уильямс, Джеймс Фелпс, Оливер Фелпс, Бонни Райт, Джефф Роуз, Роберт Паттинсон, Джейсон Айзекс, Том Фелтон, Станислав Яневский, Роберт Харви, Филип Рам, Оливия Хиггинботтом, Эшли Артус ... »-Описание: Гарри Поттер, Рон и Гермиона возвращаются на четвертый курс школы чародейства и волшебства «Хогвартс». При таинственных обстоятельствах Гарри отобран в число участников опасного соревнования – Турнира Трех Волшебников, однако проблема в том, что все его соперники - намного старше и сильнее.
К тому же, знаки указывают на возвращение Лорд Волан-де-Морт. Вскоре Гарри предстоит побороться не только за победу в соревновании, но и, прежде всего, за свою жизнь…-
Качество видео: BDRip 720p
Контейнер: MKV
Видео кодек: H.264
Аудио кодек: AC3
Видео: AVC at 3150 Кбит/сек : 1280 x 532 at 23.976 fps
Аудио: AC-3 at 384 Кбит/сек : 6 каналов, 48,0 КГц : ru
Cубтитры: русские,английские отключаемые

Media Info

Общее
Уникальный идентификатор : 145109154748166981141852877108887309530 (0x6D2B01B2BA58D908E6411DB04B7E4CDA)
Полное имя : D:\µTorrent\razda4a\Harry Potter and the Goblet of Fire.2005.720p.BluRay.x264-LEONARDO_[scarabey.org].mkv
Формат : Matroska
Версия формата : Version 2
Размер файла : 3,96 Гбайт
Продолжительность : 2 ч. 37 м.
Общий поток : 3606 Кбит/сек
Название фильма : -=LEONARDO=-
Дата кодирования : UTC 2014-01-13 19:21:44
Программа кодирования : mkvmerge v5.0.1 ('Es ist Sommer') built on Oct 23 2011 00:46:40
Библиотека кодирования : libebml v1.2.2 + libmatroska v1.3.0
Видео
Идентификатор : 1
Формат : AVC
Формат/Информация : Advanced Video Codec
Профиль формата : [email protected]
Параметр CABAC формата : Да
Параметр ReFrames формата : 8 кадров
Идентификатор кодека : V_MPEG4/ISO/AVC
Продолжительность : 2 ч. 37 м.
Битрейт : 3150 Кбит/сек
Ширина : 1280 пикселей
Высота : 532 пикселя
Соотношение сторон : 2,40:1
Режим частоты кадров : Постоянный
Частота кадров : 23,976 кадра/сек
Цветовое пространство : YUV
Субдискретизация насыщенности : 4:2:0
Битовая глубина : 8 бит
Тип развёртки : Прогрессивная
Бит/(Пиксели*Кадры) : 0.193
Размер потока : 3,46 Гбайт (87%)
Библиотека кодирования : x264 core 125 r2208 d9d2288
Настройки программы : cabac=1 / ref=8 / deblock=1:-3:-3 / analyse=0x3:0x133 / me=umh / subme=11 / psy=1 / psy_rd=1.00:0.20 / mixed_ref=1 / me_range=32 / chroma_me=1 / trellis=2 / 8x8dct=1 / cqm=0 / deadzone=21,11 / fast_pskip=0 / chroma_qp_offset=-3 / threads=12 / lookahead_threads=2 / sliced_threads=0 / nr=0 / decimate=1 / interlaced=0 / bluray_compat=0 / constrained_intra=0 / bframes=12 / b_pyramid=2 / b_adapt=2 / b_bias=0 / direct=1 / weightb=1 / open_gop=0 / weightp=2 / keyint=250 / keyint_min=23 / scenecut=40 / intra_refresh=0 / rc=crf / mbtree=0 / crf=18.0 / qcomp=0.60 / qpmin=0 / qpmax=69 / qpstep=4 / ip_ratio=1.40 / pb_ratio=1.30 / aq=2:1.00
Язык : English
Default : Да
Forced : Нет
Аудио
Идентификатор : 2
Формат : AC-3
Формат/Информация : Audio Coding 3
Расширение режима : CM (complete main)
Параметр Endianness формата : Big
Идентификатор кодека : A_AC3
Продолжительность : 2 ч. 37 м.
Вид битрейта : Постоянный
Битрейт : 384 Кбит/сек
Каналы : 6 каналов
Расположение каналов : Front: L C R, Side: L R, LFE
Частота : 48,0 КГц
Битовая глубина : 16 бит
Метод сжатия : С потерями
Размер потока : 431 Мбайт (11%)
Язык : Russian
Default : Да
Forced : Да
Текст #1
Идентификатор : 3
Формат : UTF-8
Идентификатор кодека : S_TEXT/UTF8
Идентификатор кодека/Информация : UTF-8 Plain Text
Заголовок : Russian (full)
Язык : Russian
Default : Нет
Forced : Нет
Текст #2
Идентификатор : 4
Формат : UTF-8
Идентификатор кодека : S_TEXT/UTF8
Идентификатор кодека/Информация : UTF-8 Plain Text
Заголовок : English (full)
Язык : English
Default : Нет
Forced : Нет
Меню
00:00:00.000 : en:The Riddle House
00:03:46.333 : en:The Portkey
00:06:09.000 : en:The Quidditch World Cup
00:09:49.500 : en:The Dark Mark
00:13:44.500 : en:The Triwizard Tournament
00:19:13.833 : en:The Goblet of Fire
00:23:08.000 : en:The Unforgivable Curses
00:28:59.833 : en:The Four Champions
00:36:24.500 : en:Let Events Unfold
00:39:02.666 : en:Rita Skeeter
00:41:30.000 : en:Sirius Conversation
00:45:33.666 : en:The Hungarian Horntail
00:49:04.833 : en:Transforming Malfoy
00:54:03.000 : en:The First Task
01:02:42.833 : en:Best Foot Forward
01:09:08.833 : en:An Unexpected Challenge
01:14:39.500 : en:The Yule Ball
01:22:22.666 : en:The Eggs Clue
01:30:29.333 : en:The Second Task
01:39:23.333 : en:Never Whole Again
01:42:36.333 : en:The Pensieve
01:47:16.500 : en:Dreams and Suspicions
01:50:12.666 : en:The Third Task
01:58:47.333 : en:Flesh Blood and Bone
02:01:55.000 : en:The Death Eaters
02:06:29.000 : en:Priori Incantatem
02:09:53.833 : en:Veritaserum
02:17:29.833 : en:Parting Ways
02:23:40.000 : en:End Credits

Скриншоты

Яндекс.Метрика
Рейтинг@Mail.ru