3 сердца / 3 coeurs (Бенуа Жако / Benoît Jacquot) [2014 г., драма, HDRip] MVO (iTunes)

 

Создавать темы 09-Фев-2015 07:26

-3 сердца / 3 coeurs- Производство: Франция, Германия, Бельгия
Год выпуска: 2014 г.
Жанр: драма
Продолжительность: 01:48:27
Мировая премьера: 30 августа 2014
Российская премьера: 25 декабря 2014, «Русский Репортаж»
Перевод: Профессиональный (многоголосый, закадровый) [iTunes]-Режиссер: Бенуа Жако / Benoît Jacquot
В ролях: Бенуа Пульворд, Шарлотта Генсбур, Кьяра Мастроянни, Катрин Денёв, Андре Маркон, Патрик Милле, Седрик Виейра, Тома Доре ,Френсис Леплей, Жан-Луис Кроке-Описание: Опоздав на обратный поезд в Париж, ночью в провинциальном городе Марк встречает Сильви. Они бродят по улицам до утра, разговаривают обо всем кроме них самих. Редкая гармония. Марк садится на первый поезд и договаривается с Сильви о встрече в Париже через несколько дней. Они ничего не знают друг о друге, но это не просто игра. Сильви приходит на встречу, а Марк, к сожалению, нет. Он ищет её и встречает другую женщину, Софи, не зная о том, что это сестра Сильви.- -Качество видео: HDRip
Контейнер: AVI
Видео кодек: XviD
Аудио кодек: AC3
Видео: 720x304 (2.37:1), 23.976 fps, XviD build 50 ~1410 kbps avg, 0.27 bit/pixel
Аудио: 48 kHz, AC3 Dolby Digital, 3/2 (L,C,R,l,r) + LFE ch, ~384 kbps
Cубтитры: отсутствуют

Media Info

General
Complete name : D:\3.serdca.2014.P.HDRip.1400MB.avi
Format : AVI
Format/Info : Audio Video Interleave
File size : 1.37 GiB
Duration : 1h 48mn
Overall bit rate : 1 804 Kbps
Writing application : VirtualDubMod 1.5.10.3 | www.virtualdub-fr.org || (build 2550/release)
Writing library : VirtualDubMod build 2550/release
Video
ID : 0
Format : MPEG-4 Visual
Format profile : Advanced [email protected]
Format settings, BVOP : 2
Format settings, QPel : No
Format settings, GMC : No warppoints
Format settings, Matrix : Default (MPEG)
Codec ID : XVID
Codec ID/Hint : XviD
Duration : 1h 48mn
Bit rate : 1 411 Kbps
Width : 720 pixels
Height : 304 pixels
Display aspect ratio : 2.35:1
Frame rate : 23.976 fps
Color space : YUV
Chroma subsampling : 4:2:0
Bit depth : 8 bits
Scan type : Progressive
Compression mode : Lossy
Bits/(Pixel*Frame) : 0.269
Stream size : 1.07 GiB (78%)
Writing library : XviD 1.2.1 (UTC 2008-12-04)
Audio
ID : 1
Format : AC-3
Format/Info : Audio Coding 3
Mode extension : CM (complete main)
Format settings, Endianness : Big
Codec ID : 2000
Duration : 1h 48mn
Bit rate mode : Constant
Bit rate : 384 Kbps
Channel(s) : 6 channels
Channel positions : Front: L C R, Side: L R, LFE
Sampling rate : 48.0 KHz
Bit depth : 16 bits
Compression mode : Lossy
Stream size : 298 MiB (21%)
Alignment : Split accross interleaves
Interleave, duration : 42 ms (1.00 video frame)
Interleave, preload duratio : 500 ms

Скриншоты

Яндекс.Метрика
Рейтинг@Mail.ru