[ Сегодня на трекере фрилич! Идет свободное скачивание без начисления Download ]

Присяжные / Sequestered / Сезон: 1 / Серии: 4 из 12 (Кевин Танчароэн / Kevin Tancharoen) [2014 г., триллер, WEBRip] MVO (ViruseProject)

 

Создавать темы 09-Фев-2015 07:15

-Присяжные / Sequestered-- Производство: США
Жанр: триллер
Год выпуска: 2014 г.-Мировая премьера: 5 августа 2014, ...-Релиз: Студия
Перевод: Многоголосый закадровый, профессиональный-Закадровое озвучание: Елена Емельянова, Марина Видякина, Алекс Викке, Дмитрий Иванов, Дмитрий Кравченко и Алексей Кизуб
Автор перевода, подготовка видео: Евгений Шаров
Редактор текста: Анна Марченко
Сведение звука: Виталий Емельянов
Озвучено при поддержке: игры "АЛЛОДЫ ОНЛАЙН"-Режиссер: Кевин Танчароэн / Kevin Tancharoen, Шоун Ку / Shawn Ku
В ролях: Саммер Глау, Джесси Брэдфорд, Патрик Варбертон, Брюс Дэвисон, Дина Мейер, Линдсэй Бушмен, Брайан Ибсен, Райан МакПартлин, Ронда Олдрич, ...-Описание:
12 присяжных должны вынести вердикт по делу о похищении и убийстве 8-летнего сына губернатора. На одного из присяжных совершается нападение, и судья принимает решение изолировать остальных в отеле до вынесения вердикта. В то же время помощник адвоката обнаруживает новые факты, которые могут полностью изменить ход дела...-Сезон: 1
Серии: 4 из 12 серий
Продолжительность: ~ 00:23:00 мин серия-Качество видео: WEBRip
Контейнер: AVI
Видео кодек: XviD
Аудио кодек: MP3
Видео: MPEG-4 Visual at 1500 Кбит/сек: 720 x 416 (1.731) at 23.976 fps: 0.21 Бит/Пиксели
Аудио Rus: MPEG Audio at 192 Кбит/сек: 2 канала, 44,1 КГц |ViruseProject|
Cубтитры: отсутствуют
- -

Список серий:

  • Двенадцать незнакомцев (Twelve Strangers)
  • Закрытие прачечной (Folding Laundry)
  • Доказательство жизни (Proof of Life)
  • Еще 1 ("1" More)


  • (What's in the Box?)

  • (All In)

  • (Grilled Cheese)

  • (Stop Crying)

  • (Like Sheep)

  • (Up on the Roof)

  • (Johannesburg)

  • (Ashes to Ashes)
-

Media Info

Общее
Полное имя : E:\_Сериалы\_Сериалы\Присяжные\Sequestered.S01.ViruseProject\Sequestered.S01E01.ViruseProject.avi
Формат : AVI
Формат/Информация : Audio Video Interleave
Размер файла : 291 Мбайт
Продолжительность : 23 м.
Общий поток : 1702 Кбит/сек
Программа кодирования : VirtualDubMod 1.5.10.2 (build 2540/release)
Библиотека кодирования : VirtualDubMod build 2540/release
Видео
Идентификатор : 0
Формат : MPEG-4 Visual
Профиль формата : Advanced [email protected]
Параметр BVOP формата : 2
Параметр QPel формата : Нет
Параметр GMC формата : Без точки перехода
Параметр матрицы формата : Default (H.263)
Режим смешивания : Сжатый битовый поток
Идентификатор кодека : XVID
Идентификатор кодека/Подсказка : XviD
Продолжительность : 23 м.
Битрейт : 1500 Кбит/сек
Ширина : 720 пикселей
Высота : 416 пикселей
Соотношение сторон : 1,731
Частота кадров : 23,976 кадра/сек
Цветовое пространство : YUV
Субдискретизация насыщенности : 4:2:0
Битовая глубина : 8 бит
Тип развёртки : Прогрессивная
Метод сжатия : С потерями
Бит/(Пиксели*Кадры) : 0.209
Размер потока : 256 Мбайт (88%)
Библиотека кодирования : XviD 1.2.1 (UTC 2008-12-04)
Аудио
Идентификатор : 1
Формат : MPEG Audio
Версия формата : Version 1
Профиль формата : Layer 3
Режим : Joint stereo
Расширение режима : MS Stereo
Идентификатор кодека : 55
Идентификатор кодека/Подсказка : MP3
Продолжительность : 23 м.
Вид битрейта : Постоянный
Битрейт : 192 Кбит/сек
Каналы : 2 канала
Частота : 44,1 КГц
Метод сжатия : С потерями
Размер потока : 32,8 Мбайт (11%)
Выравнивание : Разделение по промежуткам
Продолжительность промежутка : 42 мс. (1,00 видеокадр)
Время предзагрузки промежутка : 500 мс.
-

Скриншот c названием фильма

-Скриншоты:
-

Еще

-

Внимание! Раздача ведётся путём добавления новых серий!

Раздача ведётся путём добавления новых серий; при каждом добавлении создаётся новый торрент.
Чтобы начать докачку новой серии, пользователям необходимо сделать следующее:
1. остановить скачивание,
2. удалить старый торрент у себя из клиента (старые серии удалять не надо),
3. скачать новый торрент и запустить его у себя в клиенте вместо старого, при этом указать клиенту путь в старую папку, куда и должно происходить скачивание новых серий.
Ваш клиент при этом должен произвести хеширование (проверку) старой папки (если не производит сам - помогите ему сделать это), и будет докачивать только те серии которых у вас ещё нет. Старые серии при этом не удаляются, а продолжают раздаваться!
Eсли вы уже удалили старые серии, то предотвратить повторную закачку старых серий можно, отжав галочку в соответствующих местах при запуске нового торрента. По возможности, желательно не удалять старые серии как можно дольше, чтобы релизёр не столько продолжал раздавать старые серии, а смог сконцентрироваться на новых.
Совет для тех, кто не хочет ждать перехеширования:
Создайте ещё одну папку рядом с папкой сериала (рядом, а не в ней!!!). Каждую новую серию после удачной загрузки копируйте в новую папку так чтобы ваша основная папка всегда была пуста. Когда ваш новый торрент предложит вам закачать все файлы, выберете только последнюю. Для сидирования же укажите адрес новой папки.
Как закачать отдельный файл из торрента или докачать ранее пропущенные файлы торрента!
-

Как закачать отдельный файл

1. Открыть торрент
2. Снять галки с тех файлов торрента, которые мы не хотим закачивать. Оставляем только на нужных нам файлах (файле).
3. Нажать О.К.
В клиенте utorrent
Инструкция
1) Открыть торрент

2) Снять галки с тех файлов торрента, которые мы не хотим закачивать:
* либо вручную, снимая с каждого файла галку( скрин №1)
* либо, нажав кнопку "Снять метки (Select None)", сняв сразу со всех файлов(скрин №2)
№1

№2

Оставляем только на нужных нам файлах (файле).

3)Нажать О.К
-Добавлена четвертая серия первого сезона
Яндекс.Метрика
Рейтинг@Mail.ru