Шальная карта / Wild Card (Саймон Уэст / Simon West) [2014 г., боевик, триллер, драма, криминал, WEB-DLRip] MVO (Студия "Paradox")

 

Создавать темы 09-Фев-2015 06:54

-Шальная карта / Wild Card- Производство: США
Год выпуска: 2014 г.
Жанр: боевик, триллер, драма, криминал
Продолжительность: 01:32:19
Мировая премьера: 14 января 2015
Российская премьера: 26 февраля 2015, «West»
Перевод: Любительский (многоголосый, закадровый) [Студия "Paradox"]-Режиссер: Саймон Уэст / Simon West
В ролях: Джейсон Стэйтем, Майкл Ангарано, Майло Вентимилья, Доминик Гарсиа-Лоридо, Энн Хеч, София Вергара, Макс Казелла, Джейсон Александр, Хоуп Дэвис, Стэнли Туччи-Описание: Главный герой — бывший военный Ник Эскаланте — работает в Лас-Вегасе охранником, мечтает накопить денег и навсегда уехать на остров Корсика. Но Ник соглашается помочь проститутке Холли, постоянно подвергающейся насилию со стороны сына крупного гангстера, из-за чего его отъезд откладывается.- -Качество видео: WEB-DLRip
Контейнер: AVI
Видео кодек: XviD
Аудио кодек: AC3
Видео: 720x304 (2.37:1), 23.976 fps, XviD build 50 ~1725 kbps avg, 0.33 bit/pixel
Аудио: 48 kHz, AC3 Dolby Digital, 2/0 (L,R) ch, ~384 kbps
Cубтитры: отсутствуют

Media Info

General
Complete name : D:\!Shalnaya.Karta.2015.P.WEB-DLRip.1400Mb.avi
Format : AVI
Format/Info : Audio Video Interleave
File size : 1.37 GiB
Duration : 1h 32mn
Overall bit rate : 2 119 Kbps
Writing application : VirtualDubMod 1.5.10.2 (build 2540/release)
Writing library : VirtualDubMod build 2540/release
Video
ID : 0
Format : MPEG-4 Visual
Format profile : Advanced [email protected]
Format settings, BVOP : 2
Format settings, QPel : No
Format settings, GMC : No warppoints
Format settings, Matrix : Custom
Codec ID : XVID
Codec ID/Hint : XviD
Duration : 1h 32mn
Bit rate : 1 726 Kbps
Width : 720 pixels
Height : 304 pixels
Display aspect ratio : 2.35:1
Frame rate : 23.976 fps
Color space : YUV
Chroma subsampling : 4:2:0
Bit depth : 8 bits
Scan type : Progressive
Compression mode : Lossy
Bits/(Pixel*Frame) : 0.329
Stream size : 1.11 GiB (81%)
Writing library : XviD 1.2.1 (UTC 2008-12-04)
Audio
ID : 1
Format : AC-3
Format/Info : Audio Coding 3
Mode extension : CM (complete main)
Format settings, Endianness : Big
Codec ID : 2000
Duration : 1h 32mn
Bit rate mode : Constant
Bit rate : 384 Kbps
Channel(s) : 2 channels
Channel positions : Front: L R
Sampling rate : 48.0 KHz
Bit depth : 16 bits
Compression mode : Lossy
Stream size : 254 MiB (18%)
Alignment : Split accross interleaves
Interleave, duration : 42 ms (1.00 video frame)
Interleave, preload duratio : 500 ms

Скриншоты

Яндекс.Метрика
Рейтинг@Mail.ru