[ Сегодня на трекере фрилич! Идет свободное скачивание без начисления Download ]

Интерстеллар / Interstellar (Кристофер Нолан / Christopher Nolan) [2014 г., фантастика, драма, приключения, DVDScreener] Dub (Чистый звук)

 

Создавать темы 09-Фев-2015 06:53

-Интерстеллар / Interstellar- Производство: США, Великобритания / Legendary Pictures, Lynda Obst Productions, Paramount Pictures, Warner Bros.
Год выпуска: 2014 г.
Жанр: фантастика, драма, приключения
Продолжительность: 02:49:01
Мировая премьера: 26 октября 2014
Российская премьера: 6 ноября 2014, «Каро-Премьер»
Дата выхода DVD: 26 марта 2015, «CP Дистрибуция»
Дата выхода Blu-Ray: 26 марта 2015, «CP Дистрибуция»
Перевод: Профессиональный (полное дублирование) [Чистый звук]-Режиссер: Кристофер Нолан / Christopher Nolan
В ролях: Мэттью МакКонахи, Энн Хэтэуэй, Кейси Аффлек, Джессика Честейн, Тофер Грейс, Уэс Бентли, Майкл Кейн, Мэтт Дэймон, Маккензи Фой, Джон Литгоу, Эллен Бёрстин-Описание: Когда засуха приводит человечество к продовольственному кризису, коллектив исследователей и учёных отправляется сквозь червоточину (которая предположительно соединяет области пространства-времени через большое расстояние) в путешествие, чтобы превзойти прежние ограничения для космических путешествий человека и переселить человечество на другую планету.- -Качество видео: DVDScreener
Контейнер: AVI
Видео кодек: XviD
Аудио кодек: AC3
Видео: 720x314 (2.29:1), 29.970 fps, XviD MPEG-4 ~1708 kbps avg, 0.25 bit/pixel
Аудио: 48 kHz, AC3 Dolby Digital, 3/2 (L,C,R,l,r) + LFE ch, ~128 kbps
Cубтитры: отсутствуют
Примечание: Полный звук без вставок с TS!

Media Info

General
Complete name : D:\Interstellar.2014.D.DVDScr.avi
Format : AVI
Format/Info : Audio Video Interleave
Format profile : OpenDML
File size : 2.18 GiB
Duration : 2h 49mn
Overall bit rate : 1 845 Kbps
Writing application : VirtualDubMod 1.5.10.3 | www.virtualdub-fr.org || (build 2550/release)
Writing library : VirtualDubMod build 2550/release
Video
ID : 0
Format : MPEG-4 Visual
Format profile : Advanced [email protected]
Format settings, BVOP : 2
Format settings, QPel : Yes
Format settings, GMC : No warppoints
Format settings, Matrix : Default (H.263)
Muxing mode : Packed bitstream
Codec ID : XVID
Codec ID/Hint : XviD
Duration : 2h 49mn
Bit rate : 1 702 Kbps
Width : 720 pixels
Height : 314 pixels
Display aspect ratio : 2.25:1
Frame rate : 29.970 fps
Color space : YUV
Chroma subsampling : 4:2:0
Bit depth : 8 bits
Scan type : Progressive
Compression mode : Lossy
Bits/(Pixel*Frame) : 0.251
Stream size : 2.01 GiB (92%)
Writing library : XviD 1.2.1 (UTC 2008-12-04)
Audio
ID : 1
Format : AC-3
Format/Info : Audio Coding 3
Mode extension : CM (complete main)
Format settings, Endianness : Big
Codec ID : 2000
Duration : 2h 49mn
Bit rate mode : Constant
Bit rate : 128 Kbps
Channel(s) : 6 channels
Channel positions : Front: L C R, Side: L R, LFE
Sampling rate : 48.0 KHz
Bit depth : 16 bits
Compression mode : Lossy
Stream size : 155 MiB (7%)
Alignment : Split accross interleaves
Interleave, duration : 33 ms (1.00 video frame)
Interleave, preload duratio : 500 ms

Скриншоты

Яндекс.Метрика
Рейтинг@Mail.ru