ПиКей / PK (Раджкумар Хирани / Rajkumar Hirani) [2014 г., фэнтези, комедия, драма, мелодрама, детектив, HDRip] DVO + Org (Hin) + Sub (Rus)

 

Создавать темы 09-Фев-2015 06:48

ПиКей / PK- Год выпуска: 2014 г.
Производство: Индия , Rajkumar Hirani Films, Vinod Chopra Productions
Жанр: фэнтези, комедия, драма, мелодрама, детектив
Продолжительность: 02:32:18
Мировая премьера: 18 декабря 2014
Перевод: Любительский (двухголосый, закадровый)
Оригинальный аудиопоток: хинди
Режиссёр: Раджкумар Хирани / Rajkumar Hirani-В ролях: Аамир Кхан, Анушка Шарма, Санджай Датт, Боман Ирани, Саурабх Шукла, Сушант Сингх Раджпут, Парикшит Сахни, Амардип Джа, Рима Дебнатх, Диру Дривэди-Описание: ПиКей, что в переводе означает «пьяный» - прозвище, которое получил инопланетянин, прилетевший на Землю, чтобы её исследовать. На его планете никто никогда не врёт, но на нашей дела обстоят иначе. В первый же день у него крадут пульт управления, который был единственным связующим звеном между ним и его родной планетой. Отчаявшийся пришелец взывает к Богу и просит помочь ему вернуться домой. Но так и не получив ответа, он решает, что не был услышан своим Создателем и уже пора самому отправиться к нему. Весьма необычное поведение для землянина замечает телерепортёр Джаггу. Узнав его историю, девушка решается помочь бедолаге, тем более, что за время пребывания на Земле, он не только успел изменить убеждения и взгляды людей на правду, но и нажить врага в лице так называемого «менеджера» Бога – Тапасви-джи...
- *8.6 *8.0Качество видео: HDRip
Контейнер: AVI
Видео кодек: XviD
Аудио кодек: AC3
Видео: 720x304 (2.35:1), 1495 kbps, 24 fps, 0.285 bit/pixel
Аудио #1: Rus: 192 kbps, 2 ch, 48.0 kHz
Аудио #2: Hin: 320 kbps, 2 ch, 48.0 kHz
Cубтитры: русские
Формат субтитров: hardsub (неотключаемые)

Media Info

Общее
Полное имя : Пикей_ PK.2014.[HDRip].avi
Формат : AVI
Формат/Информация : Audio Video Interleave
Профиль формата : OpenDML
Настройки формата : rec
Размер файла : 2,14 Гбайт
Продолжительность : 2 ч. 32 м.
Общий поток : 2014 Кбит/сек
Программа кодирования : AVI-Mux GUI 1.17.8.3, Feb 16 201019:42:50
Видео
Идентификатор : 0
Формат : MPEG-4 Visual
Профиль формата : Advanced [email protected]
Параметр BVOP формата : Нет
Параметр QPel формата : Нет
Параметр GMC формата : Без точки перехода
Параметр матрицы формата : Default (MPEG)
Идентификатор кодека : XVID
Идентификатор кодека/Подсказка : XviD
Продолжительность : 2 ч. 32 м.
Битрейт : 1495 Кбит/сек
Ширина : 720 пикселей
Высота : 304 пикселя
Соотношение сторон : 2,35:1
Частота кадров : 24,000 кадра/сек
Цветовое пространство : YUV
Субдискретизация насыщенности : 4:2:0
Битовая глубина : 8 бит
Тип развёртки : Прогрессивная
Метод сжатия : С потерями
Бит/(Пиксели*Кадры) : 0.285
Размер потока : 1,59 Гбайт (74%)
Библиотека кодирования : XviD 62
Аудио #1
Идентификатор : 1
Формат : AC-3
Формат/Информация : Audio Coding 3
Расширение режима : CM (complete main)
Параметр Endianness формата : Big
Идентификатор кодека : 2000
Продолжительность : 2 ч. 32 м.
Вид битрейта : Постоянный
Битрейт : 192 Кбит/сек
Каналы : 2 канала
Расположение каналов : Front: L R
Частота : 48,0 КГц
Битовая глубина : 16 бит
Метод сжатия : С потерями
Размер потока : 209 Мбайт (10%)
Выравнивание : Соединение по промежуткам
Продолжительность промежутка : 64 мс. (1,54 видеокадра)
Время предзагрузки промежутка : 192 мс.
Заголовок : Rus_209
Аудио #2
Идентификатор : 2
Формат : AC-3
Формат/Информация : Audio Coding 3
Расширение режима : CM (complete main)
Параметр Endianness формата : Big
Идентификатор кодека : 2000
Продолжительность : 2 ч. 32 м.
Вид битрейта : Постоянный
Битрейт : 320 Кбит/сек
Каналы : 2 канала
Расположение каналов : Front: L R
Частота : 48,0 КГц
Битовая глубина : 16 бит
Метод сжатия : С потерями
Размер потока : 349 Мбайт (16%)
Выравнивание : Соединение по промежуткам
Продолжительность промежутка : 64 мс. (1,54 видеокадра)
Время предзагрузки промежутка : 192 мс.
Заголовок : Hin_348

Релиз

Озвучка: den904&DeadSno
Перевод и редакция: Honey&Haseena
Яндекс.Метрика
Рейтинг@Mail.ru