[ Сегодня на трекере фрилич! Идет свободное скачивание без начисления Download ]

Он сведет меня с ума / Датч / Голландец / Dutch (Питер Фэймэн / Peter Faiman) [1991 г., Комедия, BDRip-AVC] AVO (Алексей Михалев)

 

Создавать темы 02-Фев-2015 05:35

Он сведет меня с ума / Датч / Голландец / Dutch
«They're the best of friends... And they've got the scars to prove it»
- Год выпуска: 1991
Производство: США
Жанр: Комедия
Продолжительность: 01:47:32
Перевод: Авторский (одноголосый, закадровый) Алексей Михалев
Субтитры: отсутствуют
Режиссер: Питер Фэймэн / Peter Faiman
Сценарист: Джон Хьюз / John Hughes
Продюсер: Ричард Вэйн / Richard Vane, Джон Хьюз / John Hughes
В ролях: Эд О'Нилл / Ed O'Neill, Итэн Рэндолл /Ethan Randall, ДжоБет Уильямс / JoBeth Williams, И. Дж. Дэйли / E. G. Daily, Ари Мейерс / Ari Meyers, Кристофер МакДоналд / Christopher McDonald...
Описание: Возьмите доброго работягу от сохи и испорченного богатого мальчишку, свяжите их вместе сюжетом и вы получите фильм "Датч" - приключенческую комедию с элементами мелодрамы, прослеживающую путешествие этой невероятной пары. Конечным пунктом путешествия становится их дружба, а она им нужна, так как Датч Дули (О Нил) женится на матери Дойла (Рэндолл), и жить им предстоит вместе под одной крышей. Чувствуется уверенный почерк сценариста и продюсера Джона Хьюза ("Один дома"). (Иванов М.)
Качество видео: BDRip-AVC
Контейнер: MKV
Видео кодек: MPEG4-AVC / H.264
Видео: 1040x564 / 2171 kbps / 23,976 fps / 1,85:1 / High Profile 4.1
Аудио : 48 kHz, AC3 Dolby Digital, 2/0 (L,R) ch, ~192 kbps avg - Михалев

Media Info

Формат : Matroska
Версия формата : Version 4 / Version 2
Размер файла : 1,78 Гбайт
Продолжительность : 1 ч. 47 м.
Общий поток : 2366 Кбит/сек
Название фильма : Dutch.1991.x264.BDRip-AVC.Mihalev -=anton966=-
Дата кодирования : UTC 2015-02-01 05:14:48
Программа кодирования : mkvmerge v7.5.0 ('Glass Culture') 64bit built on Jan 4 2015 16:48:44
Библиотека кодирования : libebml v1.3.1 + libmatroska v1.4.2
DURATION : 01:47:29.792000000
NUMBER_OF_FRAMES : 201556
NUMBER_OF_BYTES : 154795008
_STATISTICS_WRITING_APP : mkvmerge v7.5.0 ('Glass Culture') 64bit built on Jan 4 2015 16:48:44
_STATISTICS_WRITING_DATE_UTC : 2015-02-01 05:14:48
_STATISTICS_TAGS : BPS DURATION NUMBER_OF_FRAMES NUMBER_OF_BYTES
Видео
Идентификатор : 1
Формат : AVC
Формат/Информация : Advanced Video Codec
Профиль формата : [email protected]
Параметр CABAC формата : Да
Параметр ReFrames формата : 8 кадров
Идентификатор кодека : V_MPEG4/ISO/AVC
Продолжительность : 1 ч. 47 м.
Битрейт : 2127 Кбит/сек
Ширина : 1040 пикселей
Высота : 564 пикселя
Соотношение сторон : 1,85:1
Режим частоты кадров : Постоянный
Частота кадров : 23,976 кадра/сек
Цветовое пространство : YUV
Субдискретизация насыщенности : 4:2:0
Битовая глубина : 8 бит
Тип развёртки : Прогрессивная
Бит/(Пиксели*Кадры) : 0.151
Размер потока : 1,60 Гбайт (90%)
Заголовок : Dutch.1991.x264.BDRip-AVC (1040x564)
Библиотека кодирования : x264 core 142 r2491 24e4fed
Настройки программы : cabac=1 / ref=8 / deblock=1:-3:-3 / analyse=0x3:0x113 / me=umh / subme=11 / psy=1 / psy_rd=1.15:0.15 / mixed_ref=1 / me_range=32 / chroma_me=1 / trellis=2 / 8x8dct=1 / cqm=0 / deadzone=21,11 / fast_pskip=1 / chroma_qp_offset=-3 / threads=12 / lookahead_threads=2 / sliced_threads=0 / nr=0 / decimate=1 / interlaced=0 / bluray_compat=0 / constrained_intra=0 / bframes=8 / b_pyramid=2 / b_adapt=2 / b_bias=0 / direct=1 / weightb=1 / open_gop=0 / weightp=2 / keyint=250 / keyint_min=23 / scenecut=40 / intra_refresh=0 / rc=crf / mbtree=0 / crf=19.5 / qcomp=0.60 / qpmin=0 / qpmax=69 / qpstep=4 / ip_ratio=1.40 / pb_ratio=1.30 / aq=1:1.00
Язык : English
Default : Да
Forced : Нет
DURATION : 01:47:32.446000000
NUMBER_OF_FRAMES : 154704
NUMBER_OF_BYTES : 1751812907
_STATISTICS_WRITING_APP : mkvmerge v7.5.0 ('Glass Culture') 64bit built on Jan 4 2015 16:48:44
_STATISTICS_WRITING_DATE_UTC : 2015-02-01 05:14:48
_STATISTICS_TAGS : BPS DURATION NUMBER_OF_FRAMES NUMBER_OF_BYTES
Аудио
Идентификатор : 2
Формат : AC-3
Формат/Информация : Audio Coding 3
Расширение режима : CM (complete main)
Параметр Endianness формата : Big
Идентификатор кодека : A_AC3
Продолжительность : 1 ч. 47 м.
Вид битрейта : Постоянный
Битрейт : 192 Кбит/сек
Каналы : 2 канала
Расположение каналов : Front: L R
Частота : 48,0 КГц
Битовая глубина : 16 бит
Метод сжатия : С потерями
Размер потока : 148 Мбайт (8%)
Заголовок : Mihalev DD AC3 2.0 @ 192 kbps
Язык : Russian
Default : Да
Forced : Нет
Меню
00:00:00.000 : :00:00:00.000
00:07:22.233 : :00:07:22.233
00:12:12.774 : :00:12:12.774
00:22:02.613 : :00:22:02.613
00:28:03.432 : :00:28:03.432
00:35:53.693 : :00:35:53.693
00:42:00.643 : :00:42:00.643
00:47:45.571 : :00:47:45.571
00:52:27.644 : :00:52:27.644
00:56:49.698 : :00:56:49.698
01:07:22.705 : :01:07:22.705
01:18:40.132 : :01:18:40.132
01:22:48.463 : :01:22:48.463
01:27:23.738 : :01:27:23.738
01:34:24.826 : :01:34:24.826
01:43:44.677 : :01:43:44.677

Скриншоты

Яндекс.Метрика
Рейтинг@Mail.ru