[ Сегодня на трекере фрилич! Идет свободное скачивание без начисления Download ]

Общак / The Drop (Михаэль Р. Роскам / Michaël R. Roskam) [2014 г., драма, криминал, BDRip-AVC] Dub (BD EUR) + Original (Eng) + Sub (Rus, Ukr, Eng)

 

Создавать темы 26-Янв-2015 04:07

-Общак / The Drop- Производство: США
Год выпуска: 2014 г.
Жанр: драма, криминал
Продолжительность: 01:46:44
Мировая премьера: 5 сентября 2014
Российская премьера: 30 октября 2014, «Двадцатый Век Фокс СНГ»
Дата выхода DVD: 22 января 2015, «Двадцатый Век Фокс СНГ»
Дата выхода Blu-Ray: 22 января 2015, «Двадцатый Век Фокс СНГ»
Перевод: Профессиональный (полное дублирование) [BD EUR]
Оригинальная аудиодорожка: английская-Режиссер: Михаэль Р. Роскам / Michaël R. Roskam
В ролях: Том Харди, Нуми Рапас, Джеймс Гандольфини, Маттиас Шонартс, Джон Ортис, Элизабет Родригес, Майкл Аронов, Морган Спектор, Майкл Эспер, Росс Бикелл-Описание: Боб Сагиновски оказывается в центре ограбления, из-за расследования которого может всплыть прошлое района, когда друзья, семьи и заклятые враги — все работали вместе, чтобы выжить…- -Качество видео: BDRip-AVC
Контейнер: MKV
Видео кодек: MPEG-4 AVC
Аудио кодек: AC3
Видео: 1152x480 (2.40:1), 23.976 fps, ~2080 kbps avg, 0.157 bit/pixel
Аудио: 48 kHz, AC3 Dolby Digital, 3/2 (L,C,R,l,r) + LFE ch, ~448 kbps avg - Rus
Аудио #2: 48 kHz, AC3 Dolby Digital, 3/2 (L,C,R,l,r) + LFE ch, ~448 kbps avg - Eng
Cубтитры: Русские (полные), украинские (полные), английские (полные, полные SDH, полные SDH цветные)
Главы: присутствуют, сохранены оригинальные

Media Info

General
Unique ID : 232309694989398883044970214840954922243 (0xAEC538447EC9FDF799A2B4F9A3FE2503)
Complete name : D:\The.Drop.2014.DUAL.BDRip-AVC.mkv
Format : Matroska
Format version : Version 2
File size : 2.26 GiB
Duration : 1h 46mn
Overall bit rate : 3 036 Kbps
Encoded date : UTC 2015-01-21 22:56:34
Writing application : mkvmerge v5.2.0 ('I can't explain') built on Dec 18 2011 18:12:03
Writing library : libebml v1.2.3 + libmatroska v1.3.0
Attachements : Cover.jpg
Video
ID : 1
Format : AVC
Format/Info : Advanced Video Codec
Format profile : [email protected]
Format settings, CABAC : Yes
Format settings, ReFrames : 13 frames
Codec ID : V_MPEG4/ISO/AVC
Duration : 1h 46mn
Bit rate : 2 080 Kbps
Width : 1 152 pixels
Height : 480 pixels
Display aspect ratio : 2.40:1
Frame rate mode : Constant
Frame rate : 23.976 fps
Color space : YUV
Chroma subsampling : 4:2:0
Bit depth : 8 bits
Scan type : Progressive
Bits/(Pixel*Frame) : 0.157
Stream size : 1.55 GiB (69%)
Writing library : x264 core 144 r2525kMod 40bb568
Encoding settings : cabac=1 / ref=13 / deblock=1:-3:-2 / analyse=0x3:0x133 / me=umh / subme=11 / psy=1 / fade_compensate=0.00 / psy_rd=0.90:0.00 / mixed_ref=1 / me_range=32 / chroma_me=1 / trellis=2 / 8x8dct=1 / cqm=0 / deadzone=21,11 / fast_pskip=0 / chroma_qp_offset=-4 / threads=6 / lookahead_threads=1 / sliced_threads=0 / nr=0 / decimate=1 / interlaced=0 / bluray_compat=0 / constrained_intra=0 / fgo=0 / bframes=15 / b_pyramid=2 / b_adapt=2 / b_bias=0 / direct=1 / weightb=1 / open_gop=0 / weightp=2 / keyint=230 / keyint_min=23 / scenecut=40 / intra_refresh=0 / rc_lookahead=40 / rc=crf / mbtree=0 / crf=18.5000 / qcomp=0.70 / qpmin=0 / qpmax=69 / qpstep=4 / vbv_maxrate=50000 / vbv_bufsize=62500 / crf_max=0.0 / nal_hrd=none / filler=0 / ip_ratio=1.40 / pb_ratio=1.30 / aq=3:0.90 / zones=145684,147727,b=0.36/147728,153542,b=0.25
Language : English
Default : Yes
Forced : No
Audio #1
ID : 2
Format : AC-3
Format/Info : Audio Coding 3
Mode extension : CM (complete main)
Format settings, Endianness : Big
Codec ID : A_AC3
Duration : 1h 46mn
Bit rate mode : Constant
Bit rate : 448 Kbps
Channel(s) : 6 channels
Channel positions : Front: L C R, Side: L R, LFE
Sampling rate : 48.0 KHz
Bit depth : 16 bits
Compression mode : Lossy
Stream size : 342 MiB (15%)
Title : АС3 5.1 @ 448 kbps - Dub, BD EUR
Language : Russian
Default : No
Forced : No
Audio #2
ID : 3
Format : AC-3
Format/Info : Audio Coding 3
Mode extension : CM (complete main)
Format settings, Endianness : Big
Codec ID : A_AC3
Duration : 1h 46mn
Bit rate mode : Constant
Bit rate : 448 Kbps
Channel(s) : 6 channels
Channel positions : Front: L C R, Side: L R, LFE
Sampling rate : 48.0 KHz
Bit depth : 16 bits
Compression mode : Lossy
Stream size : 342 MiB (15%)
Title : АС3 5.1 @ 448 kbps - Original
Language : English
Default : No
Forced : No
Text #1
ID : 4
Format : UTF-8
Codec ID : S_TEXT/UTF8
Codec ID/Info : UTF-8 Plain Text
Title : Full
Language : Russian
Default : No
Forced : No
Text #2
ID : 5
Format : UTF-8
Codec ID : S_TEXT/UTF8
Codec ID/Info : UTF-8 Plain Text
Title : Full
Language : Ukrainian
Default : No
Forced : No
Text #3
ID : 6
Format : UTF-8
Codec ID : S_TEXT/UTF8
Codec ID/Info : UTF-8 Plain Text
Title : Full
Language : English
Default : No
Forced : No
Text #4
ID : 7
Format : UTF-8
Codec ID : S_TEXT/UTF8
Codec ID/Info : UTF-8 Plain Text
Title : Full SDH
Language : English
Default : No
Forced : No
Text #5
ID : 8
Format : UTF-8
Codec ID : S_TEXT/UTF8
Codec ID/Info : UTF-8 Plain Text
Title : Full SDH Colored
Language : English
Default : No
Forced : No
Menu
00:00:00.000 : :Chapter 01
00:02:25.353 : :Chapter 03
00:05:59.859 : :Chapter 05
00:08:09.155 : :Chapter 07
00:11:34.777 : :Chapter 09
00:13:48.744 : :Chapter 11
00:17:28.922 : :Chapter 13
00:21:37.212 : :Chapter 15
00:25:40.830 : :Chapter 17
00:27:53.463 : :Chapter 19
00:32:02.337 : :Chapter 21
00:36:19.552 : :Chapter 23
00:38:15.751 : :Chapter 25
00:40:35.141 : :Chapter 27
00:44:05.476 : :Chapter 29
00:46:47.471 : :Chapter 31
00:48:42.711 : :Chapter 33
00:52:50.584 : :Chapter 35
00:56:28.176 : :Chapter 37
01:01:40.530 : :Chapter 39
01:05:43.105 : :Chapter 41
01:07:36.802 : :Chapter 43
01:11:13.519 : :Chapter 45
01:12:32.598 : :Chapter 47
01:15:09.505 : :Chapter 49
01:21:11.741 : :Chapter 51
01:24:10.086 : :Chapter 53
01:28:27.260 : :Chapter 55
01:30:51.404 : :Chapter 57
01:34:54.480 : :Chapter 59
01:39:00.893 : :Chapter 61
01:41:16.236 : :Chapter 63
01:46:43.772 : :Chapter 64

Скриншоты

Яндекс.Метрика
Рейтинг@Mail.ru