[ Сегодня на трекере фрилич! Идет свободное скачивание без начисления Download ]

Американская история ужасов / American Horror Story / Сезон 4 / Полный / Серии: 13 из 13 (Брэдли Букер / Bradley Buecker ...) [2014г., ужасы, фэнтези, триллер, драма, ..., WEB-DLRip] MVO (LostFilm)

 

Создавать темы 26-Янв-2015 04:04

Американская история ужасов
American Horror Story

«Get committed»
- Русское название: Американская история ужасов
Оригинальное название: American Horror Story
Страна: США
Год выпуска: 2014
Жанр: ужасы, фантастика, триллер, драма, детектив, ...-Премьера (мир): 5 октября 2011, ...
Премьера (РФ): 6 июня 2013-Озвучка: Студия
Перевод: Многоголосый закадровый, профессиональный-Режиссер: Брэдли Букер / Bradley Buecker, Альфонсо Гомез-Рейон / Alfonso Gomez-Rejon, Майкл Аппендаль / Michael Uppendahl ...
В главных ролях: Эван Питерс, Джессика Лэнг, Лили Рэйб, Фрэнсис Конрой, Сара Полсон, Таисса Фармига, Дэнис О’Харе, Закари Куинто, Дилан МакДермотт, Джозеф Файнс ...-Описание фильма:
Полное собрание национальных кошмаров. Мы уже видели дом с привидениями, больницу для душевнобольных преступников и ведьмовский шабаш. Настал черед цирка уродов. Флорида, 1950-е. Управляющая последним паноптикумом в стране (Джессика Лэнг) собирается закрыть свое шоу. Но артисты-фрики не рады досрочной пенсии. Они сделают что угодно, чтобы жуткий цирк продолжал существовать.-Сезон: 4
Серии: 13 из 13 серий
Продолжительность: ~ 01:00:00 мин серия-Качество видео: WEB-DLRip
Формат: AVI
Видеокодек: XviD
Аудиокодек: Mp3
Видео: MPEG-4 Visual at 1169 Кбит/сек: 720 x 400 (1.800) at 23.976 fps, 0.17 Бит/Пиксели
Аудио Rus: MPEG Audio at 192 Кбит/сек: 2 канала, 48,0 КГц |LostFilm|
- --

Список серий:

  • Монстры среди нас (Monsters Among Us)
  • Представление днём, резня вечером (Massacres and Matinees)
  • Эдвард Мордрейк. Часть 1 (Edward Mordrake: Part 1)
  • Эдвард Мордрейк. Часть 2 (Edward Mordrake: Part 2)
  • Кексы с розовым кремом (Pink Cupcakes)
  • В яблочко (Bullseye)
  • Испытание силы (Test of Strength)
  • Кровавая баня (Blood Bath)
  • Резня в клубе домохозяек (Tupperware Party Massacre)
  • Сироты (Orphans)
  • Думай, как фокусник (Magical Thinking)
  • Гвоздь программы (Show Stoppers)
  • Занавес (Curtain Call)
-

MediaInfo:

Общее
Полное имя : E:\_Сериалы\_Сериалы\Американская История ужасов\American Horror Story.s04.LostFilm\American.Horror.Story.S04E01.rus.LostFilm.TV.avi
Формат : AVI
Формат/Информация : Audio Video Interleave
Размер файла : 623 Мбайт
Продолжительность : 1 ч. 3 м.
Режим общего битрейта : Переменный
Общий поток : 1369 Кбит/сек
Программа кодирования : Nandub v1.0rc2
Библиотека кодирования : Nandub build 1853/release
Видео
Идентификатор : 0
Формат : MPEG-4 Visual
Профиль формата : Advanced [email protected]
Параметр BVOP формата : Нет
Параметр QPel формата : Нет
Параметр GMC формата : Без точки перехода
Параметр матрицы формата : Default (H.263)
Идентификатор кодека : XVID
Идентификатор кодека/Подсказка : XviD
Продолжительность : 1 ч. 3 м.
Битрейт : 1169 Кбит/сек
Ширина : 720 пикселей
Высота : 400 пикселей
Соотношение сторон : 16:9
Частота кадров : 23,976 кадра/сек
Цветовое пространство : YUV
Субдискретизация насыщенности : 4:2:0
Битовая глубина : 8 бит
Тип развёртки : Прогрессивная
Метод сжатия : С потерями
Бит/(Пиксели*Кадры) : 0.169
Размер потока : 532 Мбайт (85%)
Библиотека кодирования : XviD 1.2.1 (UTC 2008-12-04)
Аудио
Идентификатор : 1
Формат : MPEG Audio
Версия формата : Version 1
Профиль формата : Layer 3
Режим : Joint stereo
Расширение режима : MS Stereo
Идентификатор кодека : 55
Идентификатор кодека/Подсказка : MP3
Продолжительность : 1 ч. 3 м.
Вид битрейта : Переменный
Битрейт : 192 Кбит/сек
Каналы : 2 канала
Частота : 48,0 КГц
Метод сжатия : С потерями
Размер потока : 85,2 Мбайт (14%)
Выравнивание : Соединение по промежуткам
Продолжительность промежутка : 24 мс. (0,58 видеокадр)
Время предзагрузки промежутка : 484 мс.
Библиотека кодирования : LAME3.97b
Настройки программы : -m j -V 4 -q 3 -lowpass 18.6 --abr 192
-

Скриншот c названием фильма

-Скриншоты:
-

Еще

-

Как закачать отдельный файл

1. Открыть торрент
2. Снять галки с тех файлов торрента, которые мы не хотим закачивать. Оставляем только на нужных нам файлах (файле).
3. Нажать О.К.
В клиенте utorrent
Инструкция
1) Открыть торрент

2) Снять галки с тех файлов торрента, которые мы не хотим закачивать:
* либо вручную, снимая с каждого файла галку( скрин №1)
* либо, нажав кнопку "Снять метки (Select None)", сняв сразу со всех файлов(скрин №2)
№1

№2

Оставляем только на нужных нам файлах (файле).

3)Нажать О.К
-Добавлена тринадцатая, заключительная, серия четвертого сезона
Пятый сезон ожидается в октябре 2015 года
Яндекс.Метрика
Рейтинг@Mail.ru