Дневники Вампира / The Vampire Diaries / Сезон: 6 / Серии: 11 из 22 (Крис Грисмер / Chris Grismer, ...) [2014г., Ужасы, Фэнтези, Триллер, Драма, Мелодрама, Детектив, WEB-DLRip] DVO (Кубик в Кубе) + Original (Eng) [Обновляемая]

 

Создавать темы 26-Янв-2015 03:58

Дневники вампира
The Vampire Diaries

«Любовь - полный отстой»
- Русское название: Дневники вампира
Оригинальное название: The Vampire Diaries
Страна: США
Год выпуска: 2014
Жанр: Ужасы, Фэнтези, Триллер, Драма, Мелодрама, Детектив, ...-Озвучка: Студия
Перевод: Профессиональный (двухголосый закадровый)
Оригинальный аудиопоток: английский-Премьера (мир): 10 сентября 2009, ...
Премьера (РФ): 16 августа 2010
Релиз на DVD: 28 февраля 2013, «CP Дистрибуция», ...-Режиссер: Крис Грисмер / Chris Grismer, Маркос Сига / Marcos Siega, Джошуа Батлер / Joshua Butler, ...
В главных ролях: Нина Добрев (Елена Гилберт), Пол Уэсли (Стефан Сальватор), Йен Сомерхолдер (Дэймон Сальватор), Стивен Р. Маккуин (Джереми Гилберт), Сара Каннинг (Дженна Соммерс), Катерина Грэхэм (Бонни Беннет), Кэндис Аккола (Кэролайн Форбс), Зак Рериг (Мэтт Донован), Майкл Тревино (Тайлер Локвуд), Мэттью Дэвис (Аларик Зальцман), Джозеф Морган (Клаус Майклсон), Клэр Холт (Ребекка Майклсон) ...
Роли дублировали: Ольга Сирина, Олег Вирозуб, Мария Овчинникова, Александр Быков, Дмитрий Филимонов ...-Описание фильма:
Прошло всего четыре месяца после трагической аварии, в которой погибли их родители, и 17-летняя Елена Гилберт и ее 15-летний брат Джереми все еще пытаются оправиться от потери и вернуться к нормальной жизни. Елена всегда была отличной ученицей, красивой и популярной девушкой в школе, но теперь ей очень тяжело скрывать свою печаль от внешнего мира. В начале учебного года внимание Елены и ее друзей привлекает новый ученик, загадочный и красивый Стефан Сальваторе.
Стефан и Елена тут же чувствуют взаимную симпатию, но Елена даже не подозревает, что Стефан — вампир, которому уже сотни лет, и который старается мирно жить среди людей, несмотря на то, что его брат, Дэймон — воплощение вампирской жестокости и кровожадности. Теперь два брата-вампира — один добрый, другой злой — ведут борьбу за души Елены, ее друзей и других жителей городка Мистик Фоллз.-Сезон: 6
Серии: 11 из 22 серий
Продолжительность: ~ 00:42:00 мин серия-Качество видео: WEB-DLRip
Формат: AVI
Видеокодек: XviD
Аудиокодек: Mp3
Видео: MPEG-4 Visual at 1500 Кбит/сек: 720 x 400 (1.800) at 23.976 fps, 0.22 Бит/Пиксели
Аудио Rus: MPEG Audio at 192 Кбит/сек: 2 канала, 48,0 КГц |Кубик в Кубе|
Аудио Eng: MPEG Audio at 192 Кбит/сек: 2 канала, 48,0 КГц |Original|
- --

Список серий:

  • Я буду помнить (I'll Remember)
  • Желтые Ледбеттер (Yellow Ledbetter)
  • Добро пожаловать в рай (Welcome to Paradise)
  • Солнечное затмение (Black Hole Sun)
  • Мир изменился, а я остался прежним (The World Has Turned and Left Me Here)
  • Чем больше ты отворачиваешься, тем ближе я подбираюсь (The More You Ignore Me, the Closer I Get)
  • Помнишь нашу первую встречу? (Do You Remember the First Time?)
  • Слиться с тобой (Fade Into You)
  • Я одна (I Alone)
  • Рождество твоими глазами (Christmas Through Your Eyes)
  • Проснулась с чудовищем (Woke Up with a Monster)
-

Награды:

Сериал «Дневники вампира», имея огромный успех у зрителей, не раз номинировался на различные премии.
В копилке сериала уже лежит приз в номинации «Лучший новый драматический сериал» премии «People’s Choice Awards» и множество наград премии «Teen Choice Awards», в которой сериал «Дневники Вампира» в 2010, 2011 и 2012 г. был номинирован в 25 категориях и в 17 из них одержал победу.
-

MediaInfo:

Общее
Полное имя : E:\_Сериалы\_Сериалы\Дневники вампира\The.Vampire.Diaries.S06.Kubik.v.Kube\Vampire.Diaries.S06E01.Kubik.v.Kube.avi
Формат : AVI
Формат/Информация : Audio Video Interleave
Размер файла : 578 Мбайт
Продолжительность : 42 м.
Общий поток : 1898 Кбит/сек
Программа кодирования : VirtualDubMod 1.5.10.2 (build 2540/release)
Библиотека кодирования : VirtualDubMod build 2540/release
Видео
Идентификатор : 0
Формат : MPEG-4 Visual
Профиль формата : Advanced [email protected]
Параметр BVOP формата : 2
Параметр QPel формата : Нет
Параметр GMC формата : Без точки перехода
Параметр матрицы формата : Default (MPEG)
Идентификатор кодека : XVID
Идентификатор кодека/Подсказка : XviD
Продолжительность : 42 м.
Битрейт : 1500 Кбит/сек
Ширина : 720 пикселей
Высота : 400 пикселей
Соотношение сторон : 16:9
Частота кадров : 23,976 кадра/сек
Цветовое пространство : YUV
Субдискретизация насыщенности : 4:2:0
Битовая глубина : 8 бит
Тип развёртки : Прогрессивная
Метод сжатия : С потерями
Бит/(Пиксели*Кадры) : 0.217
Размер потока : 456 Мбайт (79%)
Библиотека кодирования : XviD 1.2.1 (UTC 2008-12-04)
Аудио #1
Идентификатор : 1
Формат : MPEG Audio
Версия формата : Version 1
Профиль формата : Layer 3
Идентификатор кодека : 55
Идентификатор кодека/Подсказка : MP3
Продолжительность : 42 м.
Вид битрейта : Постоянный
Битрейт : 192 Кбит/сек
Каналы : 2 канала
Частота : 48,0 КГц
Метод сжатия : С потерями
Размер потока : 58,4 Мбайт (10%)
Выравнивание : Соединение по промежуткам
Продолжительность промежутка : 42 мс. (1,00 видеокадр)
Время предзагрузки промежутка : 504 мс.
Аудио #2
Идентификатор : 2
Формат : MPEG Audio
Версия формата : Version 1
Профиль формата : Layer 3
Режим : Joint stereo
Расширение режима : MS Stereo
Идентификатор кодека : 55
Идентификатор кодека/Подсказка : MP3
Продолжительность : 42 м.
Вид битрейта : Постоянный
Битрейт : 192 Кбит/сек
Каналы : 2 канала
Частота : 48,0 КГц
Метод сжатия : С потерями
Размер потока : 58,4 Мбайт (10%)
Выравнивание : Соединение по промежуткам
Продолжительность промежутка : 42 мс. (1,00 видеокадр)
Время предзагрузки промежутка : 504 мс.
Библиотека кодирования : LAME3.99r
Настройки программы : -m j -V 4 -q 2 -lowpass 18.6 -b 192
-

Скриншот c названием фильма

-Скриншоты:
-

Еще

-

Внимание! Раздача ведётся путём добавления новых серий!

Раздача ведётся путём добавления новых серий; при каждом добавлении создаётся новый торрент.
Чтобы начать докачку новой серии, пользователям необходимо сделать следующее:
1. остановить скачивание,
2. удалить старый торрент у себя из клиента (старые серии удалять не надо),
3. скачать новый торрент и запустить его у себя в клиенте вместо старого, при этом указать клиенту путь в старую папку, куда и должно происходить скачивание новых серий.
Ваш клиент при этом должен произвести хеширование (проверку) старой папки (если не производит сам - помогите ему сделать это), и будет докачивать только те серии которых у вас ещё нет. Старые серии при этом не удаляются, а продолжают раздаваться!
Eсли вы уже удалили старые серии, то предотвратить повторную закачку старых серий можно, отжав галочку в соответствующих местах при запуске нового торрента. По возможности, желательно не удалять старые серии как можно дольше, чтобы релизёр не столько продолжал раздавать старые серии, а смог сконцентрироваться на новых.
Совет для тех, кто не хочет ждать перехеширования:
Создайте ещё одну папку рядом с папкой сериала (рядом, а не в ней!!!). Каждую новую серию после удачной загрузки копируйте в новую папку так чтобы ваша основная папка всегда была пуста. Когда ваш новый торрент предложит вам закачать все файлы, выберете только последнюю. Для сидирования же укажите адрес новой папки.
Как закачать отдельный файл из торрента или докачать ранее пропущенные файлы торрента!
-

Как закачать отдельный файл

1. Открыть торрент
2. Снять галки с тех файлов торрента, которые мы не хотим закачивать. Оставляем только на нужных нам файлах (файле).
3. Нажать О.К.
В клиенте utorrent
Инструкция
1) Открыть торрент

2) Снять галки с тех файлов торрента, которые мы не хотим закачивать:
* либо вручную, снимая с каждого файла галку( скрин №1)
* либо, нажав кнопку "Снять метки (Select None)", сняв сразу со всех файлов(скрин №2)
№1

№2

Оставляем только на нужных нам файлах (файле).

3)Нажать О.К
-Добавлена одиннадцатая серия шестого сезона
Яндекс.Метрика
Рейтинг@Mail.ru