Ночь покера / Poker Night (2014) WEB-DLRip

 

Создавать темы 23-Янв-2015 18:56

-Ночь покера / Poker Night (2014) WEB-DLRip- Производство: Канада, США
Жанр: Боевик, Триллер, Криминал
Режиссер: Грег Френсис / Greg Francis
Продюсер: Кори Лардж, Frank Caruso, Чад Кровчук
Актеры: Бо Мирчофф, Рон Перлман, Джанкарло Эспозито, Кори Лардж, Титус Уэлливер, Хелстон Сейдж, Рон Элдард, Майкл Эклунд, Киран Лардж, Локлин Манро
Описание фильма:
В городке Уорсо, штат Индиана, по традиции опытные детективы устраивают игры в покер, за которыми хвастаются своими самыми поучительными делами перед молодыми коллегами. После одной такой игры главного героя — начинающего детектива Джетера — ждет опыт, которым он сам сможет похвастаться, если, конечно, высвободится из рук маньяка…
Перевод: Двуголосый закадровый, любительский
Озвучка / Автор перевода: DeadSno & den904 - по переводу Janetta
Субтитры: Отсутствуют

Дата мировой премьеры: 20 ноября 2014
Продолжительность: 01:45:03
Качество видео:WEB-DLRip
Видео: 720x304 (2.37:1), 23.976 fps, XviD build 73 ~1589 kbps avg, 0.30 bit/pixel
Аудио:48 kHz, AC3 Dolby Digital, 3/2 (L,C,R,l,r) + LFE ch, ~384 kbps
Сэмпл: Скачать

Mediainfo:

Общее
Полное имя                               : C:\Users\Пользователь\Downloads\Poker.Night.2014.L2.WEB-DLRip.1.45.Gb.avi
Формат                                   : AVI
Формат/Информация                        : Audio Video Interleave
Размер файла                             : 1,46 Гбайт
Продолжительность                        : 1 ч. 45 м.
Общий поток                              : 1983 Кбит/сек
Программа кодирования                    : VirtualDubMod 1.5.10.3 | [url=http://www.virtualdub-fr.org]www.virtualdub-fr.org[/url] || (build 2550/release)
Библиотека кодирования                   : VirtualDubMod build 2550/release
Видео
Идентификатор                            : 0
Формат                                   : MPEG-4 Visual
Профиль формата                          : Advanced [email protected]
Параметр BVOP формата                    : 1
Параметр QPel формата                    : Нет
Параметр GMC формата                     : Без точки перехода
Параметр матрицы формата                 : Выборочная
Идентификатор кодека                     : XVID
Идентификатор кодека/Подсказка           : XviD
Продолжительность                        : 1 ч. 45 м.
Битрейт                                  : 1590 Кбит/сек
Ширина                                   : 720 пикселей
Высота                                   : 304 пикселя
Соотношение сторон                       : 2,35:1
Частота кадров                           : 23,976 кадра/сек
Цветовое пространство                    : YUV
Субдискретизация насыщенности            : 4:2:0
Битовая глубина                          : 8 бит
Тип развёртки                            : Прогрессивная
Метод сжатия                             : С потерями
Бит/(Пиксели*Кадры)                      : 0.303
Размер потока                            : 1,17 Гбайт (80%)
Библиотека кодирования                   : XviD 73
Аудио
Идентификатор                            : 1
Формат                                   : AC-3
Формат/Информация                        : Audio Coding 3
Расширение режима                        : CM (complete main)
Параметр Endianness формата              : Big
Идентификатор кодека                     : 2000
Продолжительность                        : 1 ч. 45 м.
Вид битрейта                             : Постоянный
Битрейт                                  : 384 Кбит/сек
Каналы                                   : 6 каналов
Расположение каналов                     : Front: L C R, Side: L R, LFE
Частота                                  : 48,0 КГц
Битовая глубина                          : 16 бит
Метод сжатия                             : С потерями
Размер потока                            : 289 Мбайт (19%)
Выравнивание                             : Разделение по промежуткам
Продолжительность промежутка             : 42  мс. (1,00 видеокадр)
Время предзагрузки промежутка            : 500  мс.
Скриншоты:
-Время раздачи: днем
Яндекс.Метрика
Рейтинг@Mail.ru