[ Сегодня на трекере фрилич! Идет свободное скачивание без начисления Download ]

Что творят мужчины! 2 (2015) WEBRip

 

Создавать темы 23-Янв-2015 18:50

-Что творят мужчины! 2 (2015) WEBRip- Производство: Россия, Enjoy Movies
Жанр: Комедия
Режиссер: Сарик Андреасян
Продюсер: Сарик Андреасян, Гевонд Андреасян, Владимир Поляков
Актеры: Таир Мамедов, Роман Юнусов, Дмитрий Кожома, Никита Джигурда, Настя Задорожная, Петр Винс, Вадим Цаллати, Наталья Рудова, Елена Борщева, Елена Беркова
Описание фильма:
России угрожает страшная опасность! Бывший сисадмин Секретного Военного Подразделения, уехавший в Америку, запустил вирус для взлома системы безопасности, что грозит всем нам страшными последствиями. Чтобы остановить программу, нужен пароль - слово, которое произносит бывшая подружка хакера, когда испытывает оргазм. Это всего лишь одно слово, но за последний год у злодея было десяток подружек, и с каждой был секс... и все они в Лос-Анджелесе! Спасти страну призваны главные специалисты по женщинам - Даниэль, Гоша и Виталик.
Перевод: Не требуется (русский)
Субтитры: Отсутствуют

Дата мировой премьеры: 1 января 2015
Дата российской премьеры: 1 января 2015, «Каропрокат»
Продолжительность: 01:18:45
Качество видео: WEBRip
Видеокодек: XviD
Битрейт видео: 1103 kb/s
Размер кадра: 720x304
Аудиокодек: AC3, 2 ch
Битрейт аудио: 128 kb/s, 2 ch, 48.0 KHz
Сэмпл: Скачать

MediaInfo:

Общее
Полное имя : D:\Фильмы 1\Что творят мужчины! 2.2015.O.WEBRip.700Mb.avi
Формат : AVI
Формат/Информация : Audio Video Interleave
Размер файла : 699 Мбайт
Продолжительность : 1 ч. 18 м.
Общий поток : 1241 Кбит/сек
Программа кодирования : VirtualDubMod 1.5.10.2 (build 2540/release)
Библиотека кодирования : VirtualDubMod build 2540/release
Видео
Идентификатор : 0
Формат : MPEG-4 Visual
Профиль формата : Advanced [email protected]
Параметр BVOP формата : 2
Параметр QPel формата : Нет
Параметр GMC формата : Без точки перехода
Параметр матрицы формата : Default (MPEG)
Идентификатор кодека : XVID
Идентификатор кодека/Подсказка : XviD
Продолжительность : 1 ч. 18 м.
Битрейт : 1103 Кбит/сек
Ширина : 720 пикселей
Высота : 304 пикселя
Соотношение сторон : 2,35:1
Частота кадров : 25,000 кадров/сек
Цветовое пространство : YUV
Субдискретизация насыщенности : 4:2:0
Битовая глубина : 8 бит
Тип развёртки : Прогрессивная
Метод сжатия : С потерями
Бит/(Пиксели*Кадры) : 0.202
Размер потока : 622 Мбайт (89%)
Библиотека кодирования : XviD 1.2.1 (UTC 2008-12-04)
Аудио
Идентификатор : 1
Формат : AC-3
Формат/Информация : Audio Coding 3
Расширение режима : CM (complete main)
Параметр Endianness формата : Big
Идентификатор кодека : 2000
Продолжительность : 1 ч. 18 м.
Вид битрейта : Постоянный
Битрейт : 128 Кбит/сек
Каналы : 2 канала
Расположение каналов : Front: L R
Частота : 48,0 КГц
Битовая глубина : 16 бит
Метод сжатия : С потерями
Размер потока : 72,1 Мбайт (10%)
Выравнивание : Разделение по промежуткам
Продолжительность промежутка : 40 мс. (1,00 видеокадр)
Время предзагрузки промежутка : 500 мс.
Скриншоты:-Время раздачи: По возможности. До первых 5 сидов.
Яндекс.Метрика
Рейтинг@Mail.ru