[ Сегодня на трекере фрилич! Идет свободное скачивание без начисления Download ]

Оставшийся / The Remaining (Кэйси Ла Скала / Casey La Scala) [2014 г., фантастика, ужасы, триллер, HDRip] DVO (DeadSno & den904)

 

Создавать темы 19-Янв-2015 05:08

-Оставшийся / The Remaining-- Производство: США, Affirm Films, Cinematic
Год выпуска: 2014 г.
Жанр: фантастика, ужасы, триллер
Продолжительность: 01:27:50
Мировая премьера: 25 августа 2014
Российская премьера: 19 февраля 2015, «CP Дистрибуция»
Перевод: Любительский (двухголосый, закадровый) [DeadSno & den904 - озвучка, chup - перевод текста]
Режиссер: Кэйси Ла Скала / Casey La Scala-В ролях: Джонни Пакар, Шон Сайпос, Брайан Дечарт, Алекса ПенаВега, Италиа Риччи, Лиз Е. Морган, Джон Пайпер-Фергюсон, Ким Пачеко, Хейли Ловитт, Эрин Мерфи-Описание: Несколько молодых людей собираются вместе, чтобы отпраздновать свадьбу двух своих друзей. Во время празднования происходит череда катастрофических событий, которая превращает празднование в борьбу не на жизнь, а на смерть. Герои отчаянно сражаются за свое убежище, за свои жизни с врагом, которого они никогда не встречали…-Качество видео: HDRip
Контейнер: AVI
Видео кодек: XviD
Аудио кодек: AC3
Видео: 720x384, 1743 Кбит/сек, 23,976 кадра/сек, 0,263 Бит/(Пиксели*Кадры)
Аудио: 448 Кбит/сек, 6 каналов, 48,0 КГц
Cубтитры: отсутствуют

Media Info

Общее
Полное имя                               : D:\movies\The.Remaining.2014.L2.HDRip.avi
Формат                                   : AVI
Формат/Информация                        : Audio Video Interleave
Размер файла                             : 1,35 Гбайт
Продолжительность                        : 1 ч. 27 м.
Общий поток                              : 2200 Кбит/сек
Видео
Идентификатор                            : 0
Формат                                   : MPEG-4 Visual
Профиль формата                          : Advanced [email protected]
Параметр BVOP формата                    : 2
Параметр QPel формата                    : Нет
Параметр GMC формата                     : Без точки перехода
Параметр матрицы формата                 : Default (H.263)
Идентификатор кодека                     : XVID
Идентификатор кодека/Подсказка           : XviD
Продолжительность                        : 1 ч. 27 м.
Битрейт                                  : 1743 Кбит/сек
Ширина                                   : 720 пикселей
Высота                                   : 384 пикселя
Соотношение сторон                       : 1,85:1
Частота кадров                           : 23,976 кадра/сек
Цветовое пространство                    : YUV
Субдискретизация насыщенности            : 4:2:0
Битовая глубина                          : 8 бит
Тип развёртки                            : Прогрессивная
Метод сжатия                             : С потерями
Бит/(Пиксели*Кадры)                      : 0.263
Размер потока                            : 1,07 Гбайт (79%)
Библиотека кодирования                   : XviD 64
Аудио
Идентификатор                            : 1
Формат                                   : AC-3
Формат/Информация                        : Audio Coding 3
Расширение режима                        : CM (complete main)
Параметр Endianness формата              : Big
Идентификатор кодека                     : 2000
Продолжительность                        : 1 ч. 27 м.
Вид битрейта                             : Постоянный
Битрейт                                  : 448 Кбит/сек
Каналы                                   : 6 каналов
Расположение каналов                     : Front: L C R, Side: L R, LFE
Частота                                  : 48,0 КГц
Битовая глубина                          : 16 бит
Метод сжатия                             : С потерями
Размер потока                            : 281 Мбайт (20%)
Выравнивание                             : Разделение по промежуткам
Продолжительность промежутка             : 42  мс. (1,00 видеокадр)
Время предзагрузки промежутка            : 500  мс.

Скриншоты

Яндекс.Метрика
Рейтинг@Mail.ru