Лиллехаммер / Lilyhammer / Сезон: Сезон 3 / Полный / Серии: 8 из 8 (Гер Хеннинг Хопланд / Geir Henning Hopland, ...) [2014 г., драма, комедия, криминал, ..., HDTVRip] AVO (Ю. Сербин)

 

Создавать темы 18-Янв-2015 04:49

-Лиллехаммер / Lilyhammer
«His way or Norway»
-- Название: Лиллехаммер
Оригинальное название: Lilyhammer
Производство: США, Норвегия
Жанр: драма, комедия, криминал, ...
Год выпуска: 2014 г.
Продолжительность: 00:45:00
Мировая премьера: 25 января 2012, ...
Российская премьера: 5 марта 2013
Дата выхода DVD: 21 мая 2013, «Парадиз / Активижен», ...-Перевод: Авторский (одноголосый, закадровый) |Ю. Сербин|
При поддержке: HDClub
Перевод Ю.Сербина осуществлен в рамках сервиса "Озвучивание".
Спонсоры: Pvolg, Loki1982, hardkatok, zeleniy, tambov68, pashich8, ochkarik1, kubarik, RomanTar, RockSysteM.-Режиссер: Гер Хеннинг Хопланд / Geir Henning Hopland, Симен Альсвик / Simen Alsvik , Ёйстейн Карлсен / Øystein Karlsen ...-В ролях: Стив Ван Зандт, Мариан Саастад Оттесен, Тронд Фауса Аурвааг, Стейнар Саген, Энн Кригсволл, Фридтьов Сохейм, Томми Карлсен, Микаэль Акснес-Персон, Свен Нордин, Роберт Скйэрстад ...-Описание:
Тальяно сдал своего босса федералам, и теперь, в рамках программы по защите свидетелей, он переезжает в Лиллехаммер, небольшой норвежский городок, когда-то приютивший зимние олимпийские игры. Сам Фрэнк называет его Лилихэммером, отсюда и название сериала. Фрэнк мечтает о рае с «чистым воздухом, белым снегом и клевыми телками», вдали от соблазнов Нью-Йорка и от карателей мафии. Реальность, конечно же, оказывается не такой, как мечты.-Качество видео: HDTVRip
Контейнер: AVI
Видео кодек: XviD
Аудио кодек: AC3
Видео: MPEG-4 Visual at 1500 Кбит/сек: 720 x 400 (1.800) at 25.000 fps, 0.21 Бит/Пиксели
Аудио Rus: AC-3 at 192 Кбит/сек: 2 канала, 48,0 КГц |Ю. Сербин]|
Cубтитры: Отсутствуют-

Media Info

Общее
Полное имя : E:\_Сериалы\_Сериалы\Лиллехаммер\Lilyhammer.S03.HDTVRip.Serbin\Lilyhammer.S03E01.HDTVRip.Serbin.avi
Формат : AVI
Формат/Информация : Audio Video Interleave
Размер файла : 558 Мбайт
Продолжительность : 45 м.
Общий поток : 1701 Кбит/сек
Программа кодирования : VirtualDubMod 1.5.10.2 (build 2540/release)
Библиотека кодирования : VirtualDubMod build 2540/release
Видео
Идентификатор : 0
Формат : MPEG-4 Visual
Профиль формата : Advanced [email protected]
Параметр BVOP формата : 2
Параметр QPel формата : Нет
Параметр GMC формата : Без точки перехода
Параметр матрицы формата : Default (H.263)
Идентификатор кодека : XVID
Идентификатор кодека/Подсказка : XviD
Продолжительность : 45 м.
Битрейт : 1500 Кбит/сек
Ширина : 720 пикселей
Высота : 400 пикселей
Соотношение сторон : 16:9
Частота кадров : 25,000 кадров/сек
Цветовое пространство : YUV
Субдискретизация насыщенности : 4:2:0
Битовая глубина : 8 бит
Тип развёртки : Прогрессивная
Метод сжатия : С потерями
Бит/(Пиксели*Кадры) : 0.208
Размер потока : 491 Мбайт (88%)
Библиотека кодирования : XviD 1.2.1 (UTC 2008-12-04)
Аудио
Идентификатор : 1
Формат : AC-3
Формат/Информация : Audio Coding 3
Профиль формата : Dolby Digital
Расширение режима : CM (complete main)
Параметр Endianness формата : Big
Идентификатор кодека : 2000
Продолжительность : 45 м.
Вид битрейта : Постоянный
Битрейт : 192 Кбит/сек
Каналы : 2 канала
Расположение каналов : Front: L R
Частота : 48,0 КГц
Битовая глубина : 16 бит
Метод сжатия : С потерями
Размер потока : 62,9 Мбайт (11%)
Выравнивание : Разделение по промежуткам
Продолжительность промежутка : 40 мс. (1,00 видеокадр)
Время предзагрузки промежутка : 500 мс.
-

Скриншот c названием фильма

-Скриншоты:
-

ЕщЕ:

Как закачать отдельный файл

1. Открыть торрент
2. Снять галки с тех файлов торрента, которые мы не хотим закачивать. Оставляем только на нужных нам файлах (файле).
3. Нажать О.К.
В клиенте utorrent
Инструкция
1) Открыть торрент

2) Снять галки с тех файлов торрента, которые мы не хотим закачивать:
* либо вручную, снимая с каждого файла галку( скрин №1)
* либо, нажав кнопку "Снять метки (Select None)", сняв сразу со всех файлов(скрин №2)
№1

№2

Оставляем только на нужных нам файлах (файле).

3)Нажать О.К
-Добавлена восьмая, заключительная, серия третьего сезона
Яндекс.Метрика
Рейтинг@Mail.ru