[ Сегодня на трекере фрилич! Идет свободное скачивание без начисления Download ]

Солнечный удар (2014) DVD9

 

Создавать темы 16-Янв-2015 10:06

-Солнечный удар (2014) DVD9- Жанр: Мелодрама, Триллер
Описание фильма:
Всего одна ночь с незнакомкой становится для главного героя настоящим наваждением. Этот «солнечный удар» не отпускает его даже в самые «окаянные дни» гибели Российской Империи…
Режиссер: Никита Михалков
Актеры: Мартиньш Калита, Виктория Соловьёва (II), Анастасия Имамова
Продолжительность: 02:52:50
Качество видео: DVD9

Видеокодек: MPEG-PS
Битрейт видео: ~4 834 Kbps
Размер кадра: 720х567
Аудиокодек: AC3, 6 ch
Битрейт аудио: 448 Kbps
Субтитры: нет

DVDInfo

Title: Solnechnyj.udar.2014.DVD9
Size: 7.04 Gb ( 7 385 970,00 KBytes ) - DVD-9
Enabled regions: 1, 2, 3, 4, 5, 6, 7, 8
VTS_01 :
Play Length: 00:00:19
Video: PAL 16:9 (720x576) VBR, Auto Pan&Scan, Auto Letterboxed
Audio:
Not specified (Dolby AC3, 2 ch)
VTS_02 :
Play Length: 02:53:00
Video: PAL 16:9 (720x576) VBR, Auto Pan&Scan, Auto Letterboxed
Audio:
Not specified (Dolby AC3, 6 ch)

MediaInfo

General
Complete name : Solnechnyj.udar.2014.DVD9\VIDEO_TS\VTS_02_7.VOB
Format : MPEG-PS
File size : 968 MiB
Duration : 25mn 6s
Overall bit rate mode : Variable
Overall bit rate : 5 389 Kbps
Video
ID : 224 (0xE0)
Format : MPEG Video
Format version : Version 2
Format profile : [email protected]
Format settings, BVOP : Yes
Format settings, Matrix : Custom
Format settings, GOP : M=3, N=12
Format settings, picture structure : Frame
Duration : 25mn 6s
Bit rate mode : Variable
Bit rate : 4 834 Kbps
Maximum bit rate : 9 000 Kbps
Width : 720 pixels
Height : 576 pixels
Display aspect ratio : 16:9
Frame rate : 25.000 fps
Standard : PAL
Color space : YUV
Chroma subsampling : 4:2:0
Bit depth : 8 bits
Scan type : Interlaced
Scan order : Top Field First
Compression mode : Lossy
Bits/(Pixel*Frame) : 0.466
Time code of first frame : 02:27:53:19
Time code source : Group of pictures header
Stream size : 868 MiB (90%)
Color primaries : BT.601 PAL
Transfer characteristics : BT.470 System B, BT.470 System G
Matrix coefficients : BT.601
Audio
ID : 189 (0xBD)-128 (0x80)
Format : AC-3
Format/Info : Audio Coding 3
Mode extension : CM (complete main)
Format settings, Endianness : Big
Muxing mode : DVD-Video
Duration : 25mn 6s
Bit rate mode : Constant
Bit rate : 448 Kbps
Channel(s) : 6 channels
Channel positions : Front: L C R, Side: L R, LFE
Sampling rate : 48.0 KHz
Bit depth : 16 bits
Compression mode : Lossy
Delay relative to video : -640ms
Stream size : 80.5 MiB (8%)
Menu

Дополнительно

Бонусы: нет

Скриншоты меню

Скриншоты:

Рецензия, отзыв о фильме

Извините если чего не так заполнил, моя первая раздача!!!
Фильм мне очень понравился, желаю каждому своих эмоций...
-Время раздачи: 24/7
Яндекс.Метрика
Рейтинг@Mail.ru