[ Сегодня на трекере фрилич! Идет свободное скачивание без начисления Download ]

Красные браслеты / Red Band Society / Сезон: 1 / Серии: 1-9 (13) (Тришиа Брок / Tricia Brock, ...) [2014 г., драма, WEB-DL, 720p] Dub (Невафильм) + Original (Eng) [Обновляемая]

 

Создавать темы 15-Янв-2015 06:14

-Красные браслеты / Red Band Society
«A new series about unlikely friends who band torether for life»
-- Производство: США
Жанр: драма
Год выпуска: 2014 г.
Продолжительность: 9x ~00:43:00
Мировая премьера: 17 сентября 2014
Российская премьера: 21 октября 2014
Перевод: Профессиональный (полное дублирование) [Невафильм]
Оригинальный аудиопоток: английский
Режиссер: Тришиа Брок / Tricia Brock, Джейсон Энслер / Jason Ensler, Альфонсо Гомез-Рейон / Alfonso Gomez-Rejon-В ролях: Октавия Спенсер, Дэйв Эннэйбл, Гриффин Глюк, Нолан Сотилло, Чарли Роу, Астро, Сиэра Браво, Зои Левин, Ребекка Риттенхаус, Уилсон Крус-Описание: Сюжет рассказывает о повседневной жизни подростков, находящихся в больнице и в других обстоятельствах вряд ли бы ставших друзьями. Они формируют так называемую группу «Красные браслеты», которая помогает им выжить в трудных условиях.
- - -Качество видео: WEB-DL
Контейнер: MKV
Стандарт разрешения: 720p
Видео кодек: H.264/AVC
Аудио кодек: AC3
Видео: 1280x720 at 25.000 fps, ~4 200 kbps avg
Аудио: Russian: 48 kHz, AC3, 2/0 (L,R) ch, ~192.00 kbps avg |Дубляж, Невафильм|
Аудио #2: English: 48 kHz, AC3, 3/2 (L,C,R,l,r) + LFE ch, ~384.00 kbps avg
Cубтитры: отсутствуют
Цитата:

• запись звука NEZ, BS666, k-marat-s
• для сохранения оригинал.тональности изменен фпс с 23.976 на 25.000

Список серий

01. Пилот / Pilot
02. Поиск души / Sole Searching
03. Лжец, на лжеце штаны горят / Liar, Liar Pants on Fire
04. Лучше места встречи выпускников нет / There's No Place Like Homecoming
05. So Tell Me What You Want What You Really Really Want
06. Ergo Ego
07. Know Thyself
08. Get Outta My Dreams, Get Into My Car
09. How Did We Get Here?

10.

Media Info

General
Complete name                    : J:\Uploads\Pirat.Ca\Red Band Society - Season 01 (2014)[720p.WEB-DL]\Red.Band.Society.S01E01.720p.WEB-DL.Rus.Eng.HDCLUB.mkv
Format                           : Matroska
File size                        : 1.48 GiB
Duration                         : 42mn 49s
Overall bit rate                 : 4 952 Kbps
Movie name                       : Red Band Society 1x01 (2014) - Release kmarats for HDCLUB
Encoded date                     : UTC 2014-10-21 19:27:30
Writing application              : mkvmerge v6.9.1 ('Blue Panther') 64bit built on Apr 18 2014 18:23:38
Writing library                  : libebml v1.3.0 + libmatroska v1.4.1
Video
ID                               : 1
Format                           : AVC
Format/Info                      : Advanced Video Codec
Format profile                   : [email protected]
Format settings, CABAC           : No
Format settings, ReFrames        : 2 frames
Muxing mode                      : Container [email protected]
Codec ID                         : V_MPEG4/ISO/AVC
Duration                         : 42mn 49s
Bit rate mode                    : Variable
Bit rate                         : 4 277 Kbps
Width                            : 1 280 pixels
Height                           : 720 pixels
Display aspect ratio             : 16:9
Frame rate                       : 25.000 fps
Color space                      : YUV
Chroma subsampling               : 4:2:0
Bit depth                        : 8 bits
Scan type                        : Progressive
Bits/(Pixel*Frame)               : 0.186
Stream size                      : 1.28 GiB (86%)
Title                            : Red Band Society 1x01 (2014) - Release kmarats for HDCLUB
Language                         : English
Color primaries                  : BT.709-5, BT.1361, IEC 61966-2-4, SMPTE RP177
Transfer characteristics         : BT.709-5, BT.1361
Matrix coefficients              : BT.709-5, BT.1361, IEC 61966-2-4 709, SMPTE RP177
Audio #1
ID                               : 2
Format                           : AC-3
Format/Info                      : Audio Coding 3
Mode extension                   : CM (complete main)
Codec ID                         : A_AC3
Duration                         : 42mn 49s
Bit rate mode                    : Constant
Bit rate                         : 192 Kbps
Channel(s)                       : 2 channels
Channel positions                : Front: L R
Sampling rate                    : 48.0 KHz
Bit depth                        : 16 bits
Stream size                      : 58.8 MiB (4%)
Title                            : Nevafilm
Language                         : Russian
Audio #2
ID                               : 3
Format                           : AC-3
Format/Info                      : Audio Coding 3
Mode extension                   : CM (complete main)
Codec ID                         : A_AC3
Duration                         : 42mn 49s
Bit rate mode                    : Constant
Bit rate                         : 384 Kbps
Channel(s)                       : 6 channels
Channel positions                : Front: L C R, Side: L R, LFE
Sampling rate                    : 48.0 KHz
Bit depth                        : 16 bits
Stream size                      : 118 MiB (8%)
Title                            : English
Language                         : English

Скриншот c названием фильма

Скриншоты

-

Внимание! Раздача ведётся путём добавления новых серий!

Раздача ведётся путём добавления новых серий; при каждом добавлении создаётся новый торрент.
Чтобы начать докачку новой серии, пользователям необходимо сделать следующее:
1. остановить скачивание,
2. удалить старый торрент у себя из клиента (старые серии удалять не надо),
3. скачать новый торрент и запустить его у себя в клиенте вместо старого, при этом указать клиенту путь в старую папку, куда и должно происходить скачивание новых серий.
Ваш клиент при этом должен произвести хеширование (проверку) старой папки (если не производит сам - помогите ему сделать это), и будет докачивать только те серии которых у вас ещё нет. Старые серии при этом не удаляются, а продолжают раздаваться!
Eсли вы уже удалили старые серии, то предотвратить повторную закачку старых серий можно, отжав галочку в соответствующих местах при запуске нового торрента. По возможности, желательно не удалять старые серии как можно дольше, чтобы релизёр не столько продолжал раздавать старые серии, а смог сконцентрироваться на новых.
Совет для тех, кто не хочет ждать перехеширования:
Создайте ещё одну папку рядом с папкой сериала (рядом, а не в ней!!!). Каждую новую серию после удачной загрузки копируйте в новую папку так чтобы ваша основная папка всегда была пуста. Когда ваш новый торрент предложит вам закачать все файлы, выберете только последнюю. Для сидирования же укажите адрес новой папки.
-
Яндекс.Метрика
Рейтинг@Mail.ru