Люси / Lucy (Люк Бессон / Luc Besson) [2014 г., боевик, фантастика, BDRip] AVO (Андрей Гаврилов) + Dub

 

Создавать темы 13-Янв-2015 15:54

Люси / Lucy Год выпуска: 2014
Производство: Франция
Жанр: боевик, фантастика
Продолжительность: 01:29:20
Перевод: Авторский (одноголосый, закадровый) Андрей Гаврилов
Перевод 2: Профессиональный (полное дублирование) Blu-ray CEE
Субтитры: отсутствуют
Режиссер: Люк Бессон / Luc Besson
В ролях: Скарлетт Йоханссон (Lucy), Морган Фриман (Professor Norman), Чхве Мин Сик (Mr. Jang), Амр Вакед (Pierre Del Rio), Джулиан Райнд-Татт (The Limey), Йохан Филип Асбек (Richard), Анали Типтон (Caroline), Николас Фонгфет (Jii), Ян Оливер Шрёдер (German Mule), Лука Анджелетти (Italian Mule)
Описание: Учёные утверждают, что человеческий мозг задействован лишь на десять или пятнадцать процентов. И люди поверили. Писатели, ученые, исследователи при каждом удобном случае строят предположения в духе "что сможет человек, если будет использовать в полную силу свой мозг"? Управлять всеми собственными органами? Читать чужие мысли? Передвигать предметы усилием воли или взглядом? Управлять временем? Расщеплять на атомы любую вещь? В этом фильме, известный французский режиссер Люк Бессон, пытается найти ответ на вопрос: так чего же сможет достичь человек, используя на все сто процентов свой мозг. Будет ли у суперчеловека желание подчинить себе всех на Земле или от эмоций и чувств не останется и следа? Захочет он поделиться новыми знаниями с миром или оставит этот удел будущим поколениям?..

Качество видео: BDRip
Контейнер: AVI
Видео кодек: XviD
Аудио кодек: AC3
Видео: 720x304 (2.35:1), 23.976 fps, XviD build 73 ~1578 kbps avg, 0.30 bit/pixel
Аудио : 48 kHz, AC3 Dolby Digital, 3/2 (L,C,R,l,r) + LFE ch, ~384.00 kbps avg - Гаврилов Андрей
Аудио #2: 48 kHz, AC3 Dolby Digital, 3/2 (L,C,R,l,r) + LFE ch, ~384.00 kbps avg - Dub

Доп. информация

Исходник: BDRemux 1080p - Talian70
За перевод Гаврилова большое спасибо пользователям форумов hdtracker.org:
rydanes; dwser; dunhill200; Denis1980; Brown15; GaryH; Chistobaev; Диммон; KerkP; Видео; Role; Отон; Denis2251; hulahup; Gangster; ultrajeka; fly32; Dr. Destructo; apollion; saenwert; Shumway
и Е-180: foxlight; пуля; zeleniy; kondratzx; chontvari; xerman13; Vladimir; MyxAmoP; luka69; karantin66; Nadoelo; uchitel538; madoff; furria62; audiolubitel; фёдор александрович; vit; Letyoha3; pestel; Iceman; carnivale; User

Интересно

Когда Люси находится на Таймс-сквер, за ее правым плечом виден щит с рекламой фильма «Малавита» (2013), режиссером которого также является Люк Бессон.
Перед тем, как заканчивается автомобильная погоня, в кадре можно заметить пожилого мужчину, читающего газету. В верхней части главной страницы видна реклама фильма «Тихоокеанский рубеж» (2013).
В своем интервью Люк Бессон рассказал, что на реализацию этого проекта ушло 10 лет. Кроме того режиссер сказал, что он знал о том, что некоторые научные предположения были ошибочными, например то, что люди используют лишь 10 процентов своего мозга. Тем не менее, он сказал, что «такое предположение» должно быть отличным началом для научно-фантастического фильма.
Режиссер Люк Бессон сыграл эпизодическую роль врача в больнице в Париже.

Media Info

Видео
Идентификатор : 0
Формат : MPEG-4 Visual
Профиль формата : Advanced [email protected]
Параметр BVOP формата : 1
Параметр QPel формата : Нет
Параметр GMC формата : Без точки перехода
Параметр матрицы формата : Выборочная
Идентификатор кодека : XVID
Идентификатор кодека/Подсказка : XviD
Продолжительность : 1 ч. 29 м.
Битрейт : 1578 Кбит/сек
Ширина : 720 пикселей
Высота : 304 пикселя
Соотношение сторон : 2,35:1
Частота кадров : 23,976 кадра/сек
Цветовое пространство : YUV
Субдискретизация насыщенности : 4:2:0
Битовая глубина : 8 бит
Тип развёртки : Прогрессивная
Метод сжатия : С потерями
Бит/(Пиксели*Кадры) : 0.301
Размер потока : 1009 Мбайт (67%)
Библиотека кодирования : XviD 73
Аудио #1
Идентификатор : 1
Формат : AC-3
Формат/Информация : Audio Coding 3
Расширение режима : CM (complete main)
Параметр Endianness формата : Big
Идентификатор кодека : 2000
Продолжительность : 1 ч. 29 м.
Вид битрейта : Постоянный
Битрейт : 384 Кбит/сек
Каналы : 6 каналов
Расположение каналов : Front: L C R, Side: L R, LFE
Частота : 48,0 КГц
Битовая глубина : 16 бит
Метод сжатия : С потерями
Размер потока : 245 Мбайт (16%)
Выравнивание : Разделение по промежуткам
Продолжительность промежутка : 42 мс. (1,00 видеокадр)
Время предзагрузки промежутка : 500 мс.
Аудио #2
Идентификатор : 2
Формат : AC-3
Формат/Информация : Audio Coding 3
Расширение режима : CM (complete main)
Параметр Endianness формата : Big
Идентификатор кодека : 2000
Продолжительность : 1 ч. 29 м.
Вид битрейта : Постоянный
Битрейт : 384 Кбит/сек
Каналы : 6 каналов
Расположение каналов : Front: L C R, Side: L R, LFE
Частота : 48,0 КГц
Битовая глубина : 16 бит
Метод сжатия : С потерями
Размер потока : 245 Мбайт (16%)
Выравнивание : Разделение по промежуткам
Продолжительность промежутка : 42 мс. (1,00 видеокадр)
Время предзагрузки промежутка : 500 мс.

Скриншоты

Яндекс.Метрика
Рейтинг@Mail.ru