[ Сегодня на трекере фрилич! Идет свободное скачивание без начисления Download ]

Интервью / The Interview (Эван Голдберг / Evan Goldberg, Сет Роген / Seth Rogen) [2014 г., комедия, боевик, WEB-DL, 720p] VO [Д. Есарев] + Original (Eng) + Sub (Eng)

 

Создавать темы 13-Янв-2015 15:44

-Интервью / The Interview-- -
Производство: США
Год выпуска: 2014 г.
Жанр: комедия, боевик
Продолжительность: 01:52:10
Мировая премьера: 11 декабря 2014
Перевод: Любительский (одноголосый, закадровый) [Д. Есарев]
Оригинальный аудиопоток: английский
Режиссер: Эван Голдберг / Evan Goldberg, Сет Роген / Seth Rogen-В ролях:
Джеймс Франко, Сет Роген, Лиззи Каплан, Рэндолл Парк, Диана Банг, Тимоти С. Саймонс, Риз Александр, Джеймс Йи, Пол Бай, Джофф Густафссон-Описание:
Дэйв — фантастически талантливый журналист популярного ток-шоу, продюсирует которое его лучший друг Аарон. Друзья, давно мечтавшие сделать что-то по-настоящему значимое, решают взять интервью у северокорейского диктатора Ким Чен Ына. Вскоре к ним обращается ЦРУ, которое просит наших героев ни много ни мало — убить Кима. Так начинается веселая история о двух наименее квалифицированных наемных убийцах в истории человечества…
-
Качество видео: WEB-DL
Контейнер: MKV
Стандарт разрешения: 720p
Видео кодек: MPEG4/AVC
Аудио кодек: AC3
Видео: 1280x534; 3791 Kbps; 23.976 fps
Аудио #1: 384 Kbps; 6 ch; 48.0 KHz
Аудио #2: 384 Kbps; 6 ch; 48.0 KHz
Cубтитры: английские

Media Info

General
Unique ID : 186293670307264209751735472860914622389 (0x8C26DB16541A97A79EA6517C27BD9FB5)
Complete name : D:\Torrents\The Interview.2014.WEB-DL.720p.AVO.Esarev.mkv
Format : Matroska
Format version : Version 4 / Version 2
File size : 3.65 GiB
Duration : 1h 52mn
Overall bit rate : 4 652 Kbps
Encoded date : UTC 2015-01-12 13:05:16
Writing application : mkvmerge v7.3.0 ('Nouages') 64bit built on Oct 22 2014 18:53:34
Writing library : libebml v1.3.0 + libmatroska v1.4.1
_STATISTICS_WRITING_APP : mkvmerge v7.3.0 ('Nouages') 64bit built on Oct 22 2014 18:53:34
_STATISTICS_WRITING_DATE_UTC : 2015-01-12 13:05:16
_STATISTICS_TAGS : BPS DURATION NUMBER_OF_FRAMES NUMBER_OF_BYTES
DURATION : 01:52:11.744000000
NUMBER_OF_FRAMES : 210367
NUMBER_OF_BYTES : 323123712
Video
ID : 1
Format : AVC
Format/Info : Advanced Video Codec
Format profile : [email protected]
Format settings, CABAC : No
Format settings, ReFrames : 2 frames
Codec ID : V_MPEG4/ISO/AVC
Duration : 1h 52mn
Bit rate : 3 791 Kbps
Width : 1 280 pixels
Height : 534 pixels
Display aspect ratio : 2.40:1
Frame rate mode : Constant
Frame rate : 23.976 fps
Color space : YUV
Chroma subsampling : 4:2:0
Bit depth : 8 bits
Scan type : Progressive
Bits/(Pixel*Frame) : 0.231
Stream size : 2.97 GiB (81%)
Language : English
Default : Yes
Forced : No
Color primaries : BT.709
Transfer characteristics : BT.709
Matrix coefficients : BT.709
Color range : Limited
Audio #1
ID : 2
Format : AC-3
Format/Info : Audio Coding 3
Mode extension : CM (complete main)
Format settings, Endianness : Big
Codec ID : A_AC3
Duration : 1h 52mn
Bit rate mode : Constant
Bit rate : 384 Kbps
Channel(s) : 6 channels
Channel positions : Front: L C R, Side: L R, LFE
Sampling rate : 48.0 KHz
Bit depth : 16 bits
Compression mode : Lossy
Stream size : 308 MiB (8%)
Title : Есарев
Language : Russian
Default : Yes
Forced : No
Audio #2
ID : 3
Format : AC-3
Format/Info : Audio Coding 3
Mode extension : CM (complete main)
Format settings, Endianness : Big
Codec ID : A_AC3
Duration : 1h 52mn
Bit rate mode : Constant
Bit rate : 384 Kbps
Channel(s) : 6 channels
Channel positions : Front: L C R, Side: L R, LFE
Sampling rate : 48.0 KHz
Bit depth : 16 bits
Compression mode : Lossy
Stream size : 308 MiB (8%)
Language : English
Default : No
Forced : No
Text
ID : 4
Format : UTF-8
Codec ID : S_TEXT/UTF8
Codec ID/Info : UTF-8 Plain Text
Language : English
Default : No
Forced : No
Menu
00:00:00.000 : en:Chapter 01
00:09:50.000 : en:Chapter 02
00:18:48.000 : en:Chapter 03
00:27:09.000 : en:Chapter 04
00:35:26.000 : en:Chapter 05
00:48:28.000 : en:Chapter 06
00:56:30.000 : en:Chapter 07
01:06:33.000 : en:Chapter 08
01:18:07.000 : en:Chapter 09
01:27:46.000 : en:Chapter 10
01:36:10.000 : en:Chapter 11
01:46:21.000 : en:Chapter 12
Яндекс.Метрика
Рейтинг@Mail.ru