Золотая баба (Виктор Кобзев) [1986 г., приключения, DVDRip]

 

Создавать темы 13-Янв-2015 15:37

-Золотая баба-- Производство: СССР. Свердловская киностудия
Режиссер: Виктор Кобзев
Жанр: приключения
Год выпуска: 1986 г.
Продолжительность: 01:14:50
В ролях: С. Парфенов, Н. Жантурин, К. Дюсембаев, В. Голубенко, А. Филозов, Л. Борисов, Б. Бейшеналиев, Г. Рымбаева, Л. Николаева-Описание: Легенда о Золотой богине, которой поклонялись вогулы, обитавшие в XVIII веке на Урале, а также о крепостном Иване, который получил свободу и любимую Анюту, найдя заветный магнитный камень.-Качество видео: DVDRip
Контейнер: AVI
Видео кодек: DivX
Аудио кодек: MP3
Видео: 640x480; 1185 kbps; 25 fps; 0.154 bit/pixel
Аудио: 128 kbps; 2 ch; 48 kHz
Cубтитры: отсутствуют

Media Info

General
Complete name : D:\Torrent\Zolotaja_baba_[Pirat.ca].torrent.avi
Format : AVI
Format/Info : Audio Video Interleave
File size : 700 MiB
Duration : 1h 14mn
Overall bit rate : 1 323 Kbps
Writing application : VirtualDubMod 1.5.4.1 (build 2178/release)
Writing library : VirtualDubMod build 2178/release
Video
ID : 0
Format : MPEG-4 Visual
Format settings, BVOP : 1
Format settings, QPel : No
Format settings, GMC : No warppoints
Format settings, Matrix : Default (H.263)
Muxing mode : Packed bitstream
Codec ID : DX50
Codec ID/Hint : DivX 5
Duration : 1h 14mn
Bit rate : 1 185 Kbps
Width : 640 pixels
Height : 480 pixels
Display aspect ratio : 4:3
Frame rate : 25.000 fps
Color space : YUV
Chroma subsampling : 4:2:0
Bit depth : 8 bits
Scan type : Progressive
Compression mode : Lossy
Bits/(Pixel*Frame) : 0.154
Stream size : 628 MiB (90%)
Writing library : DivX 5.2.1 (DrDivX 106) (UTC 2004-09-08)
Audio
ID : 1
Format : MPEG Audio
Format version : Version 1
Format profile : Layer 3
Mode : Joint stereo
Mode extension : MS Stereo
Codec ID : 55
Codec ID/Hint : MP3
Duration : 1h 14mn
Bit rate mode : Constant
Bit rate : 128 Kbps
Channel(s) : 2 channels
Sampling rate : 48.0 KHz
Compression mode : Lossy
Stream size : 67.8 MiB (10%)
Alignment : Aligned on interleaves
Interleave, duration : 40 ms (1.00 video frame)
Interleave, preload duratio : 504 ms

Скриншоты

Раздача

Раздача с 14.00 до 2.30 (время московское)
Яндекс.Метрика
Рейтинг@Mail.ru