Римские общественные бани / Thermae Romae (Хидеки Такэути / Hideki Takeuchi) [2012 г., фантастика, комедия, BDRip, 720p] VO [den904] + Original (JAP) + Sub (Rus, Eng, Jap)

 

Создавать темы 13-Янв-2015 15:37

-Римские общественные бани / Thermae Romae-- Производство: Япония, Filmmakers
Год выпуска: 2012 г.
Жанр: фантастика, комедия
Продолжительность: 01:48:20
Мировая премьера: 21 апреля 2012
Перевод: Любительский (одноголосый, закадровый) den904
Оригинальный аудиопоток: Японский
Режиссер: Хидеки Такэути / Hideki Takeuchi-В ролях: Хироши Абе, Ая Уэто, Казуки Китамура, Рики Такэути, Кари Шишидо, Мидорико Кимура, Кацуя, Буммэй Тобаяма, Кеи Иинума, Такао Киносита, Хатиро Ика, Хироши Канбе, Кацухиро Нагано, Шунгику Учида, Томио Суга, Йошиюки Моришита, Ёсикадзу Эбису, Сатору Мацуо, Чизу Сакураи, Уолтер Робертс, Ананда Джейкобс, Кристо Пьетро, Ренато Ансальди, Сёдзо Идзука, Бансуке Касамацу, Каори Ямагата, Кеисуке Ишида, Наоки Кусуми, Горо Санада, Хироки Танака, Сабуро Фудзикава, Фумия Онодера, Ёсиюки Онодера, Масатика Итимура, Нобу Моримото, Такаси Сасано-Описание: Архитектора терм Луция из Древнего Рима заказчики обвиняют в том, что он безнадежно отстал от жизни и не способен построить ничего оригинального. Отчаявшись найти работу, он случайно попадает во временной портал и появляется в Японии в 21 веке. Оказывается, что оба народа одинаково относятся к целебным свойствам бань и их роли в общественной жизни. Луций поражен достижениями странной цивилизации и продолжает свои путешествия во времени между Древним Римом и современной Японией. Фильм снят по манге Мари Ямадзаки с одноименным названием.-
Качество видео: BDRip
Контейнер: MKV
Стандарт разрешения: 720p
Видео кодек: H.264
Аудио кодек: AC3\DTS
Видео: MPEG-4 AVC, 1280 х 536, 4258 Kbps, 0.259 bit/pixel, [email protected], 23.976 fps
Аудио 1: Russian: AC3, 192 Kbps, 2 channels, Front: L R, 48.0 KHz, 16 bits den904
Аудио 2: Japanese: DTS, 1536 kbps, 3/2 (L,C,R,l,r) + LFE ch, 48 kHz,
Cубтитры: русские, английские, японские
Формат субтитров: softsub (SSA/ASS)

Media Info

Общее
Уникальный идентификатор : 221722206044989359235688332024950735407 (0xA6CE24C2B126E9EDA61E1BBCA2E2C22F)
Полное имя : D:\Закачки\Thermae.Romae.2012.BluRay.720p\Thermae.Romae.2012.BluRay.720p..mkv
Формат : Matroska
Версия формата : Version 4 / Version 2
Размер файла : 4,51 Гбайт
Продолжительность : 1 ч. 48 м.
Общий поток : 5961 Кбит/сек
Название фильма : Reliz for Pirat Ca
Дата кодирования : UTC 2015-01-12 15:10:13
Программа кодирования : mkvmerge v7.1.0 ('Good Love') 64bit built on Jul 27 2014 13:06:55
Библиотека кодирования : libebml v1.3.0 + libmatroska v1.4.1
_STATISTICS_WRITING_APP : mkvmerge v7.1.0 ('Good Love') 64bit built on Jul 27 2014 13:06:55
_STATISTICS_WRITING_DATE_UTC : 2015-01-12 15:10:13
_STATISTICS_TAGS : BPS DURATION NUMBER_OF_FRAMES NUMBER_OF_BYTES
DURATION : 01:43:15.810000000
NUMBER_OF_FRAMES : 1219
NUMBER_OF_BYTES : 41636
Attachment : Yes / Yes
Видео
Идентификатор : 1
Формат : AVC
Формат/Информация : Advanced Video Codec
Профиль формата : [email protected]
Параметр CABAC формата : Да
Параметр ReFrames формата : 12 кадров
Идентификатор кодека : V_MPEG4/ISO/AVC
Продолжительность : 1 ч. 48 м.
Битрейт : 4258 Кбит/сек
Ширина : 1280 пикселей
Высота : 536 пикселей
Соотношение сторон : 2,40:1
Режим частоты кадров : Постоянный
Частота кадров : 23,976 кадра/сек
Цветовое пространство : YUV
Субдискретизация насыщенности : 4:2:0
Битовая глубина : 8 бит
Тип развёртки : Прогрессивная
Бит/(Пиксели*Кадры) : 0.259
Размер потока : 3,13 Гбайт (69%)
Библиотека кодирования : x264 core 125 r2208 d9d2288
Настройки программы : cabac=1 / ref=12 / deblock=1:-3:-3 / analyse=0x3:0x113 / me=umh / subme=10 / psy=1 / psy_rd=1.05:0.10 / mixed_ref=1 / me_range=32 / chroma_me=1 / trellis=2 / 8x8dct=1 / cqm=2 / deadzone=21,11 / fast_pskip=0 / chroma_qp_offset=-2 / threads=12 / lookahead_threads=2 / sliced_threads=0 / nr=0 / decimate=1 / interlaced=0 / bluray_compat=0 / constrained_intra=0 / bframes=6 / b_pyramid=2 / b_adapt=2 / b_bias=0 / direct=3 / weightb=1 / open_gop=0 / weightp=2 / keyint=250 / keyint_min=23 / scenecut=40 / intra_refresh=0 / rc_lookahead=60 / rc=2pass / mbtree=0 / bitrate=4258 / ratetol=2.0 / qcomp=0.70 / qpmin=1 / qpmax=63 / qpstep=4 / cplxblur=20.0 / qblur=0.5 / vbv_maxrate=40000 / vbv_bufsize=30000 / nal_hrd=none / ip_ratio=1.40 / pb_ratio=1.30 / aq=2:1.00
Язык : English
Default : Да
Forced : Нет
Основные цвета : BT.709
Характеристики трансфера : BT.709
Коэффициенты матрицы : BT.709
_STATISTICS_WRITING_APP : mkvmerge v7.1.0 ('Good Love') 64bit built on Jul 27 2014 13:06:55
_STATISTICS_WRITING_DATE_UTC : 2015-01-12 15:10:13
_STATISTICS_TAGS : BPS DURATION NUMBER_OF_FRAMES NUMBER_OF_BYTES
DURATION : 01:48:20.119000000
NUMBER_OF_FRAMES : 155847
NUMBER_OF_BYTES : 3458642612
Аудио #1
Идентификатор : 2
Формат : AC-3
Формат/Информация : Audio Coding 3
Расширение режима : CM (complete main)
Параметр Endianness формата : Big
Идентификатор кодека : A_AC3
Продолжительность : 1 ч. 48 м.
Вид битрейта : Постоянный
Битрейт : 192 Кбит/сек
Каналы : 2 канала
Расположение каналов : Front: L R
Частота : 48,0 КГц
Битовая глубина : 16 бит
Метод сжатия : С потерями
Задержка видео : 8 мс.
Размер потока : 149 Мбайт (3%)
Заголовок : АС3 192 2ch
Язык : Russian
Default : Да
Forced : Нет
Аудио #2
Идентификатор : 3
Формат : DTS
Формат/Информация : Digital Theater Systems
Режим : 16
Параметр Endianness формата : Big
Идентификатор кодека : A_DTS
Продолжительность : 1 ч. 48 м.
Вид битрейта : Постоянный
Битрейт : 1509 Кбит/сек
Каналы : 6 каналов
Расположение каналов : Front: L C R, Side: L R, LFE
Частота : 48,0 КГц
Битовая глубина : 24 бит
Метод сжатия : С потерями
Размер потока : 1,14 Гбайт (25%)
Default : Нет
Forced : Нет
Текст #1
Идентификатор : 4
Формат : ASS
Идентификатор кодека : S_TEXT/ASS
Идентификатор кодека/Информация : Advanced Sub Station Alpha
Метод сжатия : Без потерь
Язык : Russian
Default : Нет
Forced : Нет
Текст #2
Идентификатор : 5
Формат : UTF-8
Идентификатор кодека : S_TEXT/UTF8
Идентификатор кодека/Информация : UTF-8 Plain Text
Язык : English
Default : Нет
Forced : Нет
Текст #3
Идентификатор : 6
Формат : UTF-8
Идентификатор кодека : S_TEXT/UTF8
Идентификатор кодека/Информация : UTF-8 Plain Text
Язык : Japanese
Default : Нет
Forced : Нет

Скриншоты

-Раздача ведётся круглосуточно до 5 скачавших. Далее файл удаляю.
Яндекс.Метрика
Рейтинг@Mail.ru