Фрэнк / Frank (2014) BDRip [H.264]

 

Создавать темы 13-Янв-2015 08:26

-Фрэнк / Frank (2014) BDRip- Производство: Великобритания, Ирландия
Жанр: Драма, комедия, детектив
Режиссер: Леонард Абрахамсон
Актеры: Донал Глисон, Мэгги Джилленхол, Скут МакНэйри, Майкл Фассбендер, Мойра Брукер, Пол Баттерворф, Фил Кингстон, Билли Трэйнор, Шэйн О’Брайэн, Франсуа Сивиль
Описание фильма:
В центре истории окажется молодой парень, жаждущий стать музыкантом и попадающий в состав эксцентричной поп-группы, возглавляет которую таинственный и загадочный Фрэнк.
Перевод: Профессиональный многоголосый, любительский одноголосый
Язык субтитров: Русский, английский
Вид субтитров: Вшитые (отключаемые)

Продолжительность: 01:35:05
Качество видео: BDRip (AVC)
Видеокодек: MPEG-4 AVC
Битрейт видео: ~2000 Кбит/с
Размер кадра: 1024x432
Аудио:
1. AC3, 6 ch, 384 Кбит/с - русский профессиональный многоголосый (R5)
2. AC3, 6 ch, 448 Кбит/с - русский любительский одноголосый (PashaUP)
3. AC3, 6 ch, 448 Кбит/с - английский

MediaInfo:

Общее
Уникальный идентификатор : 222498688495640749803552686330093577472 (0xA763B04D13156838B5B8C1737A3D2500)
Полное имя : C:\NNM\Фрэнк\Frank 2014 BDRip AVC.mkv
Формат : Matroska
Версия формата : Version 4 / Version 2
Размер файла : 2,18 Гбайт
Продолжительность : 1 ч. 35 м.
Общий поток : 3279 Кбит/сек
Программа кодирования : mkvmerge v7.2.0 ('On Every Street') 64bit built on Sep 13 2014 15:52:10
Библиотека кодирования : libebml v1.3.0 + libmatroska v1.4.1
DURATION : 01:35:05.760000000
NUMBER_OF_FRAMES : 178305
NUMBER_OF_BYTES : 319522560
_STATISTICS_WRITING_APP : mkvmerge v7.2.0 ('On Every Street') 64bit built on Sep 13 2014 15:52:10
_STATISTICS_WRITING_DATE_UTC : 2014-09-30 05:46:57
_STATISTICS_TAGS : BPS DURATION NUMBER_OF_FRAMES NUMBER_OF_BYTES
Видео
Идентификатор : 1
Формат : AVC
Формат/Информация : Advanced Video Codec
Профиль формата : [url=mailto:[email protected]][email protected][/url]
Параметр CABAC формата : Да
Параметр ReFrames формата : 10 кадров
Идентификатор кодека : V_MPEG4/ISO/AVC
Продолжительность : 1 ч. 35 м.
Битрейт : 2000 Кбит/сек
Ширина : 1024 пикселя
Высота : 432 пикселя
Соотношение сторон : 2,35:1
Частота кадров : 23,976 кадра/сек
Цветовое пространство : YUV
Субдискретизация насыщенности : 4:2:0
Битовая глубина : 8 бит
Тип развёртки : Прогрессивная
Бит/(Пиксели*Кадры) : 0.189
Размер потока : 1,28 Гбайт (59%)
Библиотека кодирования : x264 core 142 r2479 dd79a61
Настройки программы : cabac=1 / ref=10 / deblock=1:-3:-3 / analyse=0x3:0x133 / me=umh / subme=11 / psy=1 / psy_rd=1.00:0.20 / mixed_ref=1 / me_range=48 / chroma_me=1 / trellis=2 / 8x8dct=1 / cqm=0 / deadzone=21,11 / fast_pskip=0 / chroma_qp_offset=0 / threads=12 / lookahead_threads=2 / sliced_threads=0 / nr=0 / decimate=1 / interlaced=0 / bluray_compat=0 / constrained_intra=0 / bframes=9 / b_pyramid=2 / b_adapt=2 / b_bias=0 / direct=3 / weightb=1 / open_gop=1 / weightp=2 / keyint=250 / keyint_min=23 / scenecut=40 / intra_refresh=0 / rc=2pass / mbtree=0 / bitrate=2000 / ratetol=1.0 / qcomp=0.60 / qpmin=0 / qpmax=69 / qpstep=4 / cplxblur=20.0 / qblur=0.5 / ip_ratio=1.40 / pb_ratio=1.30 / aq=1:1.00
Язык : English
Default : Да
Forced : Нет
DURATION : 01:35:05.742000000
NUMBER_OF_FRAMES : 136801
NUMBER_OF_BYTES : 1423588659
_STATISTICS_WRITING_APP : mkvmerge v7.2.0 ('On Every Street') 64bit built on Sep 13 2014 15:52:10
_STATISTICS_WRITING_DATE_UTC : 2014-09-30 05:46:57
_STATISTICS_TAGS : BPS DURATION NUMBER_OF_FRAMES NUMBER_OF_BYTES
Аудио #1
Идентификатор : 2
Формат : AC-3
Формат/Информация : Audio Coding 3
Расширение режима : CM (complete main)
Идентификатор кодека : A_AC3
Продолжительность : 1 ч. 35 м.
Вид битрейта : Постоянный
Битрейт : 384 Кбит/сек
Каналы : 6 каналов
Расположение каналов : Front: L C R, Side: L R, LFE
Частота : 48,0 КГц
Битовая глубина : 16 бит
Метод сжатия : С потерями
Размер потока : 261 Мбайт (12%)
Заголовок : Профессиональный многоголосый (R5)
Язык : Russian
Default : Да
Forced : Нет
Аудио #2
Идентификатор : 3
Формат : AC-3
Формат/Информация : Audio Coding 3
Расширение режима : CM (complete main)
Идентификатор кодека : A_AC3
Продолжительность : 1 ч. 35 м.
Вид битрейта : Постоянный
Битрейт : 448 Кбит/сек
Каналы : 6 каналов
Расположение каналов : Front: L C R, Side: L R, LFE
Частота : 48,0 КГц
Битовая глубина : 16 бит
Метод сжатия : С потерями
Размер потока : 305 Мбайт (14%)
Заголовок : Любительский одноголосый (PаshаUP)
Язык : Russian
Default : Нет
Forced : Нет
Аудио #3
Идентификатор : 4
Формат : AC-3
Формат/Информация : Audio Coding 3
Расширение режима : CM (complete main)
Идентификатор кодека : A_AC3
Продолжительность : 1 ч. 35 м.
Вид битрейта : Постоянный
Битрейт : 448 Кбит/сек
Каналы : 6 каналов
Расположение каналов : Front: L C R, Side: L R, LFE
Частота : 48,0 КГц
Битовая глубина : 16 бит
Метод сжатия : С потерями
Размер потока : 305 Мбайт (14%)
Язык : English
Default : Нет
Forced : Нет
Текст #1
Идентификатор : 5
Формат : UTF-8
Идентификатор кодека : S_TEXT/UTF8
Идентификатор кодека/Информация : UTF-8 Plain Text
Язык : Russian
Default : Да
Forced : Нет
Текст #2
Идентификатор : 6
Формат : UTF-8
Идентификатор кодека : S_TEXT/UTF8
Идентификатор кодека/Информация : UTF-8 Plain Text
Язык : English
Default : Нет
Forced : Нет
Меню
00:00:00.000 : en:Chapter 1
00:06:57.333 : en:Chapter 2
00:14:56.270 : en:Chapter 3
00:21:14.898 : en:Chapter 4
00:29:07.495 : en:Chapter 5
00:37:24.575 : en:Chapter 6
00:45:31.603 : en:Chapter 7
00:51:53.777 : en:Chapter 8
01:01:31.771 : en:Chapter 9
01:07:58.074 : en:Chapter 10
01:14:36.138 : en:Chapter 11
01:23:28.837 : en:Chapter 12
Скриншоты:Время раздачи: Круглосуточно до 10 скачавших
Яндекс.Метрика
Рейтинг@Mail.ru