[ Сегодня на трекере фрилич! Идет свободное скачивание без начисления Download ]

Черная скала / Blackrock (1997) DVDRip [H.264] [AVO]

 

Создавать темы 13-Янв-2015 08:24

-Черная скала / Blackrock (1997) DVDRip- Производство: Австралия
Жанр: Драма, триллер
Режиссер: Стивен Видлер
Актеры: Лоуренс Брюлс, Хит Леджер, Линда Кроппер, Саймон Линдон, Крис Хейвуд, Ребекка Смарт, Жанетт Кронин, Дэвид Филд, Джастин Кларк, Эсси Дэвис
Описание фильма:
Четверо приятелей на пляжной вечеринке насилуют 15-летнюю девочку. Все это видит друг хозяина веселья Джаред. Он ничего не делает, что бы помочь ей. На следующий день он узнает, что девочка убита. Многие винят ее за не очень хорошее поведение, мол сама виновата. Другие, наоборот защищают. Джаред закрывается в себе, но рано или поздно правда всплывет…
Перевод: Авторский (Михаил Иванов)
Продолжительность: 01:36:55
Качество видео: DVDRip (AVC)

Видеокодек: MPEG-4 AVC
Битрейт видео: ~1950 Кбит/с
Размер кадра: 704x524
Аудио:
1. AC3, 2 ch, 192 Кбит/с - русский
2. AC3, 2 ch, 192 Кбит/с - английский

MediaInfo:

Общее
Уникальный идентификатор : 254331411644740612667042622188551412409 (0xBF5672B9DBFCC69A8E4456C4B4341AB9)
Полное имя : C:\NNM\Черная скала\Chernaya skala 1997 DVDRip.mkv
Формат : Matroska
Версия формата : Version 4 / Version 2
Размер файла : 1,44 Гбайт
Продолжительность : 1 ч. 26 м.
Общий поток : 2381 Кбит/сек
Дата кодирования : UTC 2014-08-06 19:40:51
Программа кодирования : mkvmerge v7.1.0 ('Good Love') 64bit built on Jul 27 2014 13:06:55
Библиотека кодирования : libebml v1.3.0 + libmatroska v1.4.1
DURATION : 01:26:27.808000000
NUMBER_OF_FRAMES : 162119
NUMBER_OF_BYTES : 124507392
_STATISTICS_WRITING_APP : mkvmerge v7.1.0 ('Good Love') 64bit built on Jul 27 2014 13:06:55
_STATISTICS_WRITING_DATE_UTC : 2014-08-06 19:40:51
_STATISTICS_TAGS : BPS DURATION NUMBER_OF_FRAMES NUMBER_OF_BYTES
Видео
Идентификатор : 1
Формат : AVC
Формат/Информация : Advanced Video Codec
Профиль формата : [url=mailto:[email protected]][email protected][/url]
Параметр CABAC формата : Да
Параметр ReFrames формата : 3 кадра
Идентификатор кодека : V_MPEG4/ISO/AVC
Продолжительность : 1 ч. 26 м.
Битрейт : 1950 Кбит/сек
Ширина : 704 пикселя
Высота : 524 пикселей
Соотношение сторон : 4:3
Соотношение сторон в оригинале : 4:3
Частота кадров : 29,970 кадров/сек
Стандарт вещания : NTSC
Цветовое пространство : YUV
Субдискретизация насыщенности : 4:2:0
Битовая глубина : 8 бит
Тип развёртки : Прогрессивная
Бит/(Пиксели*Кадры) : 0.194
Размер потока : 1,18 Гбайт (82%)
Default : Да
Forced : Нет
Аудио #1
Идентификатор : 2
Формат : AC-3
Формат/Информация : Audio Coding 3
Расширение режима : CM (complete main)
Идентификатор кодека : A_AC3
Продолжительность : 1 ч. 26 м.
Вид битрейта : Постоянный
Битрейт : 192 Кбит/сек
Каналы : 2 канала
Расположение каналов : Front: L R
Частота : 48,0 КГц
Битовая глубина : 16 бит
Метод сжатия : С потерями
Размер потока : 119 Мбайт (8%)
Язык : Russian
Default : Да
Forced : Нет
Аудио #2
Идентификатор : 3
Формат : AC-3
Формат/Информация : Audio Coding 3
Расширение режима : CM (complete main)
Идентификатор кодека : A_AC3
Продолжительность : 1 ч. 26 м.
Вид битрейта : Постоянный
Битрейт : 192 Кбит/сек
Каналы : 2 канала
Расположение каналов : Front: L R
Частота : 48,0 КГц
Битовая глубина : 16 бит
Метод сжатия : С потерями
Размер потока : 119 Мбайт (8%)
Язык : English
Default : Нет
Forced : Нет
Меню
00:00:00.000 : en:Chapter 1
00:07:14.433 : en:Chapter 2
00:10:53.366 : en:Chapter 3
00:15:31.800 : en:Chapter 4
00:27:18.033 : en:Chapter 5
00:36:23.800 : en:Chapter 6
00:43:44.900 : en:Chapter 7
00:58:16.366 : en:Chapter 8
01:08:53.866 : en:Chapter 9
01:21:42.766 : en:Chapter 10
Скриншоты:-Время раздачи: Круглосуточно до 10 скачавших
Яндекс.Метрика
Рейтинг@Mail.ru