[ Сегодня на трекере фрилич! Идет свободное скачивание без начисления Download ]

Утопия / Utopia / Сезон: 1 / Полный / Серии: 6 из 6 (Марк Манден / Marc Munden) [2014 г., фантастика, триллер, драма, детектив, ..., WEB-DLRip] MVO (LostFilm)

 

Создавать темы 12-Янв-2015 06:35

Утопия / Utopia- Русское название: Утопия
Оригинальное название: Utopia
Страна: Великобритания
Год выпуска: 2014
Жанр: фантастика, триллер, драма, детектив, ...-Озвучка: Студия
Перевод: Многоголосый закадровый, профессиональный-Премьера (мир): 15 января 2013, ...-Режиссер: Марк Манден / Marc Munden, Алекс Гарсиа Лопес / Alex Garcia Lopez, Уэйн Йип / Wayne Yip
В главных ролях: Фиона О’Шонесси (Джессика Хайд), Александра Роач (Бэкки), Натан Стюарт-Джарретт (Йен Джонсон), Адиль Ахтар (Уилсон Уилсон), Пол Хиггинс (Майкл Дагдэйл), Оливер Вуллфорд (Грант), Нил Мэскелл (Арби), Пол Рэди (Ли), Джералдина Джеймс (Милнер), Иэн Макдермид (Антон) ...-Описание фильма:
«Утопия» — конспирологический триллер британского производства, ставший лучшим образцом своего жанра за последние годы. Сериал объединяет в себе элементы драмы, научной фантастики и детектива, что делает его интересным для зрителей с разными вкусами. За запутанным сюжетом, полным интриг, предательства и паранойи, кроется ряд актуальных вопросов о доверии, одиночестве и границах дозволенного. «Утопия» — один из самых стильных проектов на современном телевидении. Съемки и музыка завораживают, дополняя неповторимый антураж жестокого и опасного мира. Этот провокационный и дерзкий сериал стоит увидеть всем, кому интересны теории заговоров и средства, которыми порой достигается (или же рушится) идеальный мир.-Сезон: 1
Серии: 6 из 6 серий
Продолжительность: ~ 00:59:00 мин серия-Качество видео: WEB-DLRip
Формат: AVI
Видеокодек: XviD
Аудиокодек: AC-3
Видео: MPEG-4 Visual at 1213 Кбит/сек: 720 x 400 (1.800) at 25.000 fps, 0.17 Бит/Пиксели
Аудио Rus: MPEG Audio at 192 Кбит/сек: 2 канала, 48,0 КГц |LostFilm|
- -

MediaInfo:

Общее
Полное имя : E:\_Сериалы\_Сериалы\Утопия\Utopia.s01.LostFilm\Utopia.S01E01.rus.LostFilm.TV.avi
Формат : AVI
Формат/Информация : Audio Video Interleave
Размер файла : 604 Мбайт
Продолжительность : 59 м.
Режим общего битрейта : Переменный
Общий поток : 1413 Кбит/сек
Программа кодирования : Nandub v1.0rc2
Библиотека кодирования : Nandub build 1853/release
Видео
Идентификатор : 0
Формат : MPEG-4 Visual
Профиль формата : Advanced [email protected]
Параметр BVOP формата : Нет
Параметр QPel формата : Нет
Параметр GMC формата : Без точки перехода
Параметр матрицы формата : Default (H.263)
Идентификатор кодека : XVID
Идентификатор кодека/Подсказка : XviD
Продолжительность : 59 м.
Битрейт : 1213 Кбит/сек
Ширина : 720 пикселей
Высота : 400 пикселей
Соотношение сторон : 16:9
Частота кадров : 25,000 кадров/сек
Цветовое пространство : YUV
Субдискретизация насыщенности : 4:2:0
Битовая глубина : 8 бит
Тип развёртки : Прогрессивная
Метод сжатия : С потерями
Бит/(Пиксели*Кадры) : 0.168
Размер потока : 518 Мбайт (86%)
Библиотека кодирования : XviD 1.2.1 (UTC 2008-12-04)
Аудио
Идентификатор : 1
Формат : MPEG Audio
Версия формата : Version 1
Профиль формата : Layer 3
Режим : Joint stereo
Расширение режима : MS Stereo
Идентификатор кодека : 55
Идентификатор кодека/Подсказка : MP3
Продолжительность : 59 м.
Вид битрейта : Переменный
Битрейт : 192 Кбит/сек
Каналы : 2 канала
Частота : 48,0 КГц
Метод сжатия : С потерями
Размер потока : 80,1 Мбайт (13%)
Выравнивание : Соединение по промежуткам
Продолжительность промежутка : 24 мс. (0,60 видеокадр)
Время предзагрузки промежутка : 483 мс.
Библиотека кодирования : LAME3.97b
Настройки программы : -m j -V 4 -q 3 -lowpass 18.6 --abr 192
-

Скриншот c названием фильма

-Скриншоты:
-

Еще

-
-

Как закачать отдельный файл

1. Открыть торрент
2. Снять галки с тех файлов торрента, которые мы не хотим закачивать. Оставляем только на нужных нам файлах (файле).
3. Нажать О.К.
В клиенте utorrent
Инструкция
1) Открыть торрент

2) Снять галки с тех файлов торрента, которые мы не хотим закачивать:
* либо вручную, снимая с каждого файла галку( скрин №1)
* либо, нажав кнопку "Снять метки (Select None)", сняв сразу со всех файлов(скрин №2)
№1

№2

Оставляем только на нужных нам файлах (файле).

3)Нажать О.К
-Добавлена шестая, заключительная, серия первого сезона
Яндекс.Метрика
Рейтинг@Mail.ru