[ Сегодня на трекере фрилич! Идет свободное скачивание без начисления Download ]

Кристал Фэйри и волшебный кактус и 2012 / Crystal Fairy & the Magical Cactus and 2012 (Себастьян Сильва / Sebastián Silva) [2013 г., комедия, приключения, BDRip, 720p] MVO (Black Street Records) + Sub (Eng) + Original (Eng)

 

Создавать темы 12-Янв-2015 06:03

-Кристал Фэйри и волшебный кактус и 2012 / Crystal Fairy & the Magical Cactus and 2012- Производство: Чили
Год выпуска: 2013 г.
Жанр: комедия, приключения
Продолжительность: 01:38:39
Мировая премьера: 17 января 2013
Перевод: Любительский (многоголосый, закадровый) [Black Street Records]
Оригинальный аудиопоток: английский-Режиссер: Себастьян Сильва / Sebastián Silva
В ролях: Майкл Сера, Габи Хоффманн, Хуан Андрес Сильва, Аугусто Силва, Хосе Мигель Сильва, Грасия Аристия, Мануэла Бальдовино, Гари Бойд-Описание: История Кристал Фэйри — престранной хиппи, живущей в Сантьяго, которую судьба-злодейка сводит с одним американцем.- -Качество видео: BDRip
Контейнер: MKV
Стандарт разрешения: 720p
Видео кодек: Другой MPEG4
Аудио кодек: AC3
Видео: 1280x536 (2.40:1), 4 829 Kbps, 23.976 fps, 0.294 bit/pix
Аудио: 640 Kbps, 6 ch, 48.0 KHz - Rus
Аудио #2: 640 Kbps, 6 ch, 48.0 KHz - Eng
Cубтитры: English (forced)
Формат субтитров: softsub (SRT)
Дополнительно: Сохранены оригинальные чаптеры как на Blu-ray

Media Info

General
Unique ID : 204150908210695109962562157406552025022 (0x999608E40B63B545B4DC3A17044B67BE)
Complete name : D:\Crystal.Fairy.2013.Blu.Ray.720p.mkv
Format : Matroska
Format version : Version 4 / Version 2
File size : 4.21 GiB
Duration : 1h 38mn
Overall bit rate : 6 111 Kbps
Encoded date : UTC 2015-01-08 01:29:04
Writing application : mkvmerge v7.5.0 ('Glass Culture') 64bit built on Jan 4 2015 16:48:44
Writing library : libebml v1.3.1 + libmatroska v1.4.2
Video
ID : 1
Format : AVC
Format/Info : Advanced Video Codec
Format profile : [email protected]
Format settings, CABAC : Yes
Format settings, ReFrames : 5 frames
Codec ID : V_MPEG4/ISO/AVC
Duration : 1h 38mn
Bit rate : 4 829 Kbps
Width : 1 280 pixels
Height : 536 pixels
Display aspect ratio : 2.40:1
Frame rate mode : Constant
Frame rate : 23.976 fps
Color space : YUV
Chroma subsampling : 4:2:0
Bit depth : 8 bits
Scan type : Progressive
Bits/(Pixel*Frame) : 0.294
Stream size : 3.25 GiB (77%)
Writing library : x264 core 140 r2377 1ca7bb9
Encoding settings : cabac=1 / ref=5 / deblock=1:0:0 / analyse=0x3:0x133 / me=umh / subme=7 / psy=1 / psy_rd=1.00:0.00 / mixed_ref=1 / me_range=16 / chroma_me=1 / trellis=1 / 8x8dct=1 / cqm=0 / deadzone=21,11 / fast_pskip=0 / chroma_qp_offset=-2 / threads=18 / lookahead_threads=3 / sliced_threads=0 / nr=0 / decimate=1 / interlaced=0 / bluray_compat=0 / constrained_intra=0 / bframes=3 / b_pyramid=2 / b_adapt=1 / b_bias=0 / direct=1 / weightb=1 / open_gop=0 / weightp=2 / keyint=250 / keyint_min=23 / scenecut=40 / intra_refresh=0 / rc_lookahead=40 / rc=2pass / mbtree=1 / bitrate=4829 / ratetol=1.0 / qcomp=0.60 / qpmin=0 / qpmax=69 / qpstep=4 / cplxblur=20.0 / qblur=0.5 / ip_ratio=1.40 / aq=1:1.00
Language : English
Default : Yes
Forced : No
Audio #1
ID : 2
Format : AC-3
Format/Info : Audio Coding 3
Mode extension : CM (complete main)
Format settings, Endianness : Big
Codec ID : A_AC3
Duration : 1h 38mn
Bit rate mode : Constant
Bit rate : 640 Kbps
Channel(s) : 6 channels
Channel positions : Front: L C R, Side: L R, LFE
Sampling rate : 48.0 KHz
Bit depth : 16 bits
Compression mode : Lossy
Stream size : 452 MiB (10%)
Title : Black Street Records
Language : Russian
Default : Yes
Forced : Yes
Audio #2
ID : 3
Format : AC-3
Format/Info : Audio Coding 3
Mode extension : CM (complete main)
Format settings, Endianness : Big
Codec ID : A_AC3
Duration : 1h 38mn
Bit rate mode : Constant
Bit rate : 640 Kbps
Channel(s) : 6 channels
Channel positions : Front: L C R, Side: L R, LFE
Sampling rate : 48.0 KHz
Bit depth : 16 bits
Compression mode : Lossy
Stream size : 452 MiB (10%)
Language : English
Default : No
Forced : No
Text #1
ID : 4
Format : UTF-8
Codec ID : S_TEXT/UTF8
Codec ID/Info : UTF-8 Plain Text
Language : Russian
Default : Yes
Forced : Yes
Text #2
ID : 5
Format : UTF-8
Codec ID : S_TEXT/UTF8
Codec ID/Info : UTF-8 Plain Text
Title : forced
Language : English
Default : No
Forced : No
Menu
00:00:00.000 : en:00:00:00.000
00:09:18.349 : en:00:09:18.349
00:16:43.002 : en:00:16:43.002
00:24:22.378 : en:00:24:22.378
00:30:27.701 : en:00:30:27.701
00:38:47.700 : en:00:38:47.700
00:46:50.933 : en:00:46:50.933
00:54:04.700 : en:00:54:04.700
01:01:39.279 : en:01:01:39.279
01:11:43.925 : en:01:11:43.925
01:23:50.567 : en:01:23:50.567
01:35:58.044 : en:01:35:58.044

Скриншоты

Яндекс.Метрика
Рейтинг@Mail.ru