[ Сегодня на трекере фрилич! Идет свободное скачивание без начисления Download ]

Следующая полночь / The Midnight After (Фрут Чан / Fruit Chan) [2014 г., триллер, комедия, детектив, BDRip, 720p] DVO (DeadSno & den904) + Sub (Rus, Eng) + Original (Chi)

 

Создавать темы 12-Янв-2015 05:26

-Следующая полночь / The Midnight After- Производство: Гонконг, Китай
Год выпуска: 2014 г.
Жанр: триллер, комедия, детектив
Продолжительность: 02:00:34
Мировая премьера: 7 февраля 2014
Перевод: Любительский (двухголосый, закадровый) [DeadSno & den904]
Оригинальный аудиопоток: Chinese-Режиссер: Фрут Чан / Fruit Chan
В ролях: Ю-Нам Вонг, Дженис Ман, Саймон Ям, Кара Хуи, Тинг Яу Цуй, Сует Лам, Гу-Би ДжейСи, Шин-Чюн Ли, Сэм Ли, Черри Нган-Описание: Восемнадцать... нет, 16 пассажиров, севших в маршрутное такси (и водитель, конечно), отправляются из Монкока в Тайпоу. Как только красная маршрутка проходит тоннель Лайон-Рок - переход с Коулуна на новые территории, - Гонконг становится городом-призраком. По прибытии в Тайпоу все, находившиеся в автобусе, начинают понимать, что что-то не так. Почему на улицах пусто? Где все? Почему на их звонки никто не отвечает? И кто эти таинственные фигуры в масках, время от времени появляющиеся перед растерянными пассажирами?- -Качество видео: BDRip
Контейнер: MKV
Стандарт разрешения: 720p
Видео кодек: H.264
Аудио кодек: AC3
Видео: 1280x544, 5 300 Kbps, 24.000 fps, 0.317 bit/pix
Аудио: 640 Kbps, 6 ch, 48.0 KHz - Rus
Аудио #2: 640 Kbps, 6 ch, 48.0 KHz - Chi
Cубтитры: Russian, English
Формат субтитров: softsub (SRT)
Дополнительно: Сохранены оригинальные чаптеры как на Blu-Ray

Media Info

General
Unique ID : 245317470515000671625841016853511771344 (0xB88E6D1DB63D8FA1A2D426E7BC3394D0)
Complete name : D:\The.Midnight.After.2014.Blu.Ray.720p.mkv
Format : Matroska
Format version : Version 4 / Version 2
File size : 5.65 GiB
Duration : 2h 0mn
Overall bit rate : 6 713 Kbps
Encoded date : UTC 2015-01-08 23:01:58
Writing application : mkvmerge v7.5.0 ('Glass Culture') 64bit built on Jan 4 2015 16:48:44
Writing library : libebml v1.3.1 + libmatroska v1.4.2
Video
ID : 1
Format : AVC
Format/Info : Advanced Video Codec
Format profile : [email protected]
Format settings, CABAC : Yes
Format settings, ReFrames : 12 frames
Codec ID : V_MPEG4/ISO/AVC
Duration : 2h 0mn
Bit rate : 5 300 Kbps
Width : 1 280 pixels
Height : 544 pixels
Display aspect ratio : 2.35:1
Frame rate mode : Constant
Frame rate : 24.000 fps
Color space : YUV
Chroma subsampling : 4:2:0
Bit depth : 8 bits
Scan type : Progressive
Bits/(Pixel*Frame) : 0.317
Stream size : 4.46 GiB (79%)
Writing library : x264 core 133 r2334 a3ac64b
Encoding settings : cabac=1 / ref=12 / deblock=1:-3:-3 / analyse=0x3:0x133 / me=umh / subme=10 / psy=1 / psy_rd=1.10:0.00 / mixed_ref=1 / me_range=24 / chroma_me=1 / trellis=2 / 8x8dct=1 / cqm=0 / deadzone=21,11 / fast_pskip=0 / chroma_qp_offset=-2 / threads=6 / lookahead_threads=1 / sliced_threads=0 / nr=0 / decimate=0 / interlaced=0 / bluray_compat=0 / constrained_intra=0 / bframes=9 / b_pyramid=2 / b_adapt=2 / b_bias=0 / direct=3 / weightb=1 / open_gop=0 / weightp=2 / keyint=250 / keyint_min=24 / scenecut=40 / intra_refresh=0 / rc=crf / mbtree=0 / crf=15.0 / qcomp=0.70 / qpmin=0 / qpmax=69 / qpstep=4 / ip_ratio=1.20 / pb_ratio=1.20 / aq=2:0.70
Language : Chinese
Default : Yes
Forced : No
Audio #1
ID : 2
Format : AC-3
Format/Info : Audio Coding 3
Mode extension : CM (complete main)
Format settings, Endianness : Big
Codec ID : A_AC3
Duration : 2h 0mn
Bit rate mode : Constant
Bit rate : 640 Kbps
Channel(s) : 6 channels
Channel positions : Front: L C R, Side: L R, LFE
Sampling rate : 48.0 KHz
Bit depth : 16 bits
Compression mode : Lossy
Stream size : 552 MiB (10%)
Title : Влад и Снежинка
Language : Russian
Default : Yes
Forced : Yes
Audio #2
ID : 3
Format : AC-3
Format/Info : Audio Coding 3
Mode extension : CM (complete main)
Format settings, Endianness : Big
Codec ID : A_AC3
Duration : 2h 0mn
Bit rate mode : Constant
Bit rate : 640 Kbps
Channel(s) : 6 channels
Channel positions : Front: L C R, Side: L R, LFE
Sampling rate : 48.0 KHz
Bit depth : 16 bits
Compression mode : Lossy
Stream size : 552 MiB (10%)
Language : Chinese
Default : No
Forced : No
Text #1
ID : 4
Format : UTF-8
Codec ID : S_TEXT/UTF8
Codec ID/Info : UTF-8 Plain Text
Title : forced
Language : Russian
Default : Yes
Forced : Yes
Text #2
ID : 5
Format : UTF-8
Codec ID : S_TEXT/UTF8
Codec ID/Info : UTF-8 Plain Text
Title : mitrichojisan
Language : Russian
Default : No
Forced : No
Text #3
ID : 6
Format : UTF-8
Codec ID : S_TEXT/UTF8
Codec ID/Info : UTF-8 Plain Text
Language : English
Default : No
Forced : No
Menu
00:00:00.000 : en:Chapter 1
00:06:41.625 : en:Chapter 2
00:13:12.208 : en:Chapter 3
00:20:40.792 : en:Chapter 4
00:27:20.833 : en:Chapter 5
00:30:35.625 : en:Chapter 6
00:37:00.917 : en:Chapter 7
00:43:29.708 : en:Chapter 8
00:47:11.208 : en:Chapter 9
00:51:46.417 : en:Chapter 10
00:56:39.042 : en:Chapter 11
01:01:16.500 : en:Chapter 12
01:05:49.417 : en:Chapter 13
01:08:13.083 : en:Chapter 14
01:16:19.083 : en:Chapter 15
01:20:49.208 : en:Chapter 16
01:28:18.792 : en:Chapter 17
01:35:38.708 : en:Chapter 18
01:40:56.333 : en:Chapter 19
01:48:51.125 : en:Chapter 20

Скриншоты

Яндекс.Метрика
Рейтинг@Mail.ru