Каникулы строгого режима (2009) DVDRip [Полная версия]

 

Создавать темы 10-Янв-2015 06:48

-Каникулы строгого режима (2009) DVDRip [Полная версия]- Жанр: Комедия, Детектив, Приключения
Режиссер: Игорь Зайцев
Актеры: Сергей Безруков, Дмитрий Дюжев, Сабина Ахмедова, Алена Бабенко, Владимир Меньшов, Алексей Кравченко, Александр Лыков, Кирилл Плетнёв, Людмила Полякова, Тимур Боканча, Андрей Кивинов
Описание фильма:
История о том, как двое не самых молодых людей, Кольцов и Сумароков, волею судьбы оказались вожатыми в пионерском лагере в компании в меру энергичного руководства и не в меру энергичных детей. Все бы ничего, да только попали они туда прямо с арестантской шконки.
Сначала Кольцов, будучи весьма уважаемым профессиональным сотрудником МВД, имеющий за плечами две поездки в Чечню, вдруг по неосторожности совершает убийство своего коллеги. Стараниями родственников покойного попадает на «черную» зону, где ему не рад никто от руководящей элиты до зэков. Там он знакомится с Сумароковым. При содействии сотрудника колонии Гагарина мужчины бегут из тюрьмы и устраиваются вожатыми в пионерлагерь.

Продолжительность: 02:20:21
Качество видео: DVDRip
Видеокодек: Xvid
Битрейт видео: ~2 049 Kbps
Размер кадра: 720 X 320
Аудиокодек: AC3, 2 ch
Битрейт аудио: 224 Kbps
Сэмпл: Ссылка

Mediainfo:

General
Complete name               : F:\Kanikuly.strogogo.rezhima_polnaja.versija.avi
Format                      : AVI
Format/Info                 : Audio Video Interleave
Format profile              : OpenDML
File size                   : 2.24 GiB
Duration                    : 2h 20mn
Overall bit rate            : 2 285 Kbps
Video
ID                          : 0
Format                      : MPEG-4 Visual
Format profile              : Advanced [email protected]
Format settings, BVOP       : 2
Format settings, QPel       : No
Format settings, GMC        : No warppoints
Format settings, Matrix     : Default (H.263)
Codec ID                    : XVID
Codec ID/Hint               : XviD
Duration                    : 2h 20mn
Bit rate                    : 2 049 Kbps
Width                       : 720 pixels
Height                      : 320 pixels
Display aspect ratio        : 2.25:1
Frame rate                  : 25.000 fps
Color space                 : YUV
Chroma subsampling          : 4:2:0
Bit depth                   : 8 bits
Scan type                   : Progressive
Compression mode            : Lossy
Bits/(Pixel*Frame)          : 0.356
Stream size                 : 2.01 GiB (90%)
Writing library             : XviD 73
Audio
ID                          : 1
Format                      : AC-3
Format/Info                 : Audio Coding 3
Mode extension              : CM (complete main)
Format settings, Endianness : Big
Codec ID                    : 2000
Duration                    : 2h 20mn
Bit rate mode               : Constant
Bit rate                    : 224 Kbps
Channel(s)                  : 2 channels
Channel positions           : Front: L R
Sampling rate               : 48.0 KHz
Bit depth                   : 16 bits
Compression mode            : Lossy
Stream size                 : 225 MiB (10%)
Alignment                   : Aligned on interleaves
Interleave, duration        : 40 ms (1.00 video frame)
Interleave, preload duratio : 512 ms
Скриншоты:
-Время раздачи: 24/7 (круглосуточно)
Яндекс.Метрика
Рейтинг@Mail.ru