Дневной дозор / Day Watch [Режиссёрская версия] (Тимур Бекмамбетов) [2006 г., фантастика, триллер, боевик, фэнтези, экранизация, BDRip]

 

Создавать темы 09-Янв-2015 03:31

-Дневной дозор / Day Watch-Режиссёрская версия- Год выпуска: 2006 г.
Производство: Россия , Fox Searchlight Pictures, Первый канал, Кинокомпания Таббак, Базелевс-Продакшн
Жанр: фантастика, триллер, боевик, фэнтези, экранизация
Продолжительность: 02:25:29
Российская премьера: 1 января 2006, «Гемини Киномир»
Мировая премьера: 1 января 2006
Режиссёр: Тимур Бекмамбетов
В ролях: Константин Хабенский, Мария Порошина, Владимир Меньшов, Галина Тюнина, Виктор Вержбицкий, Жанна Фриске, Дмитрий Мартынов, Валерий Золотухин, Алексей Чадов, Нуржуман Ихтымбаев
Описание: Ночью в подъезде своего дома убита молодая женщина. На теле не обнаружено никаких следов насилия… Зыбкое равновесие между Светлыми и Тёмными нарушено. И чаша весов склоняется в сторону Тёмных. Но убитая — Тёмная иная, а значит подозрение падает на Светлых.
Гессер срочно собирает команду: обвинение в убийстве — серьёзная проблема. Он обязан реагировать. И, прежде всего, понять кто где был и чем занимался в указанное Тёмными время. Выясняется, что алиби отсутствует только у Городецкого…
По мотивам одноимённого романа Сергея Лукьяненко.
-*6.6 *6.0Качество видео: BDRip
Контейнер: AVI
Видео кодек: XviD
Аудио кодек: AC3
Видео: 720x304 (2.35:1), 1746 kbps, 23.976 fps, 0.333 bit/pixel
Аудио: 384 kbps, 6 ch, 48.0 kHz
Cубтитры: отсутствуют

Награды

Media Info

Общее
Полное имя : Дневной дозор.(режиссёрская версия).2006.[BDRip].avi
Формат : AVI
Формат/Информация : Audio Video Interleave
Профиль формата : OpenDML
Размер файла : 2,18 Гбайт
Продолжительность : 2 ч. 25 м.
Общий поток : 2142 Кбит/сек
Программа кодирования : VirtualDubModRus 1.5.10.2 (build 2542/release)
Библиотека кодирования : VirtualDubMod build 2542/release
Видео
Идентификатор : 0
Формат : MPEG-4 Visual
Профиль формата : Advanced [email protected]
Параметр BVOP формата : 1
Параметр QPel формата : Нет
Параметр GMC формата : Без точки перехода
Параметр матрицы формата : Выборочная
Идентификатор кодека : XVID
Идентификатор кодека/Подсказка : XviD
Продолжительность : 2 ч. 25 м.
Битрейт : 1746 Кбит/сек
Ширина : 720 пикселей
Высота : 304 пикселя
Соотношение сторон : 2,35:1
Частота кадров : 23,976 кадра/сек
Цветовое пространство : YUV
Субдискретизация насыщенности : 4:2:0
Битовая глубина : 8 бит
Тип развёртки : Прогрессивная
Метод сжатия : С потерями
Бит/(Пиксели*Кадры) : 0.333
Размер потока : 1,78 Гбайт (82%)
Библиотека кодирования : XviD 1.2.1 (UTC 2008-12-04)
Аудио
Идентификатор : 1
Формат : AC-3
Формат/Информация : Audio Coding 3
Расширение режима : CM (complete main)
Параметр Endianness формата : Big
Идентификатор кодека : 2000
Продолжительность : 2 ч. 25 м.
Вид битрейта : Постоянный
Битрейт : 384 Кбит/сек
Каналы : 6 каналов
Расположение каналов : Front: L C R, Side: L R, LFE
Частота : 48,0 КГц
Битовая глубина : 16 бит
Метод сжатия : С потерями
Размер потока : 400 Мбайт (18%)
Выравнивание : Разделение по промежуткам
Продолжительность промежутка : 42 мс. (1,00 видеокадр)

Ещё скриншоты

Яндекс.Метрика
Рейтинг@Mail.ru