[ Сегодня на трекере фрилич! Идет свободное скачивание без начисления Download ]

Бумеранг (2007) DVDRip

 

Создавать темы 08-Янв-2015 11:33

-Бумеранг (2007) DVDRip- Год выпуска: 2007
Производство: Россия, Intra Communications
Жанр: Драма, мелодрама
Режиссер: Рудольф Фрунтов
Актеры: Мария Звонарёва, Алексей Нилов, Ольга Лукьяненко, Нина Усатова, Павел Южаков-Харланчук, Тамара Миронова, Даша Бранкевич, Аксинья Червонец, Александр Рапопорт, Алеся Пуховая, Оксана Лесная, Дмитрий Голубович, Инна Дубок, Константин Задворный, Игорь Сигов, Евгений Ивкович, Светлана Кузьмина, Валентина Лосовская, Лидия Мордачёва, Андрей Олиференко, Валерий Шушкевич, Сергей Прокопич
Описание фильма:
У Инги было все – успешный бизнес, красивый дом, лучшие автомобили, яхта… Но не было детей. А она мечтала о нормальной семье, о тихом семейном счастье. Когда надежда на появление детей окончательно исчезла, Инга задумывает неимоверно жестокий план – ребенка должна родить от Олега другая женщина, а она, Инга, заменит ему мать.Даша – сирота, она родит сына от Олега. Олег влюбляется в нее, окружает заботой и вниманием. Он знает, что Даша не отдаст сына, да и сам уже не хочет этого. Но Инга требует ребенка, шантажирует мужа. И Олег сдается… Он предает Дашу. Даша попадает в тюрьму, ребенок усыновляется Ингой и Олегом.А потом… Кто знает, что такое бумеранг? Кто не верит в наказание зла? В то, что расплата существует! Посмотрите фильм «Бумеранг» и убедитесь в силе добра и в наказуемости зла, в величие благородства и в низости подлости…. Убедитесь в том, что Судьба имеет право на расплату и обязательно им воспользуется…
Перевод: Не требуется (язык русский)

Продолжительность: 01:39:06
Качество видео: DVDRip
Видеокодек: XviD
Битрейт видео: ~1713 Кбит/с
Размер кадра: 720x416
Аудиокодек: AC3 2 ch
Битрейт аудио: 256 Кбит/с

MediaInfo:

Общее
Полное имя : C:\NNM\Бумеранг\Bumerang 2007 DVDRip.avi
Формат : AVI
Формат/Информация : Audio Video Interleave
Размер файла : 1,37 Гбайт
Продолжительность : 1 ч. 39 м.
Общий поток : 1976 Кбит/сек
Программа кодирования : VirtualDubMod 1.5.4.1 (build 2178/release)
Библиотека кодирования : VirtualDubMod build 2178/release
Видео
Идентификатор : 0
Формат : MPEG-4 Visual
Профиль формата : Advanced [email protected]
Параметр BVOP формата : 1
Параметр QPel формата : Нет
Параметр GMC формата : Без точки перехода
Параметр матрицы формата : Выборочная
Идентификатор кодека : XVID
Идентификатор кодека/Подсказка : XviD
Продолжительность : 1 ч. 39 м.
Битрейт : 1713 Кбит/сек
Ширина : 720 пикселей
Высота : 416 пикселей
Соотношение сторон : 16:9
Частота кадров : 25,000 кадров/сек
Цветовое пространство : YUV
Субдискретизация насыщенности : 4:2:0
Битовая глубина : 8 бит
Тип развёртки : Прогрессивная
Метод сжатия : С потерями
Бит/(Пиксели*Кадры) : 0.229
Размер потока : 1,19 Гбайт (87%)
Библиотека кодирования : XviD 1.2.0.dev47 (UTC 2006-11-01)
Аудио
Идентификатор : 1
Формат : AC-3
Формат/Информация : Audio Coding 3
Расширение режима : CM (complete main)
Идентификатор кодека : 2000
Продолжительность : 1 ч. 39 м.
Вид битрейта : Постоянный
Битрейт : 256 Кбит/сек
Каналы : 2 канала
Расположение каналов : Front: L R
Частота : 48,0 КГц
Битовая глубина : 16 бит
Метод сжатия : С потерями
Размер потока : 181 Мбайт (13%)
Выравнивание : Разделение по промежуткам
Продолжительность промежутка : 96 мс. (2,40 видеокадра)
Время предзагрузки промежутка : 96 мс.
Язык : Russian
Скриншоты:-Время раздачи:Круглосуточно до 10 скачавших
Яндекс.Метрика
Рейтинг@Mail.ru