8 миллиметров / 8MM (1999) WEB-DLRip-AVC | D, P

 

Создавать темы 04-Окт-2013 17:28

Информация о фильме
Название: 8 миллиметров
Оригинальное название: 8MM
Год выхода: 1999
Жанр: Детектив, триллер
Режиссер: Джоэл Шумахер
В ролях: Николас Кейдж, Хоакин Феникс, Джеймс Гандольфини, Питер Стормаре, Кэтрин Кинер...
О фильме:
После смерти почтенного отца семейства в его сейфе обнаружена 8-миллиметровая пленка с любительским фильмом: сексуальный садист зверски убивает 15-летнюю девушку. Вдова боится скандала, но хочет знать правду. Она нанимает частного детектива Тома Уэлса, поручив ему разобраться, снято ли на пленку реальное убийство или это омерзительная инсценировка. Поиски ответа на вопрос приводят Тома в мир порноиндустрии, где, по выражению одного из героев, "ты танцуешь с дьяволом, не подозревая, что дьявола изменить нельзя, а вот он вполне может переделать тебя".
Сценарий к фильму написал известный сценарист Эндрю Кевин Уокер ("Семь"), а постановщик Джоэл Шумахер ("Телефонная будка", "Охота на Веронику", "Призрак оперы") в одном из интервью определил тему картины как попытку погружения человека в самые глубины мрака. Главный герой в исполнении Николаса Кейджа стремится разобраться в истоках человеческого насилия.

MPAA: R - Лицам до 17 лет обязательно присутствие взрослого-Страна: США, Германия
Продолжительность: 02:03:16
Перевод: Дублированный, профессиональный многоголосый
Файл
Кодек: x264
Качество: WEB-DLRip - AVC /исходник: 8MM.1999.720p.WEB-DL.H264-ViGi [PublicHD]
Видео: MPEG-4 AVC, 1024x432 (2.35:1), 1700 kbps, 23,976 fps, 0,160 bpp
Аудио №1: русский / AC3 / 5.1 / 48 kHz / 448 kbps / 16 bit |DUB|
Аудио №2: русский / AC3 / 5.1 / 48 kHz / 384 kbps / 16 bit |MVO|
Субтитры: Русские, английские

Media Info

General
Unique ID : 176485286186492273540934042364735793435 (0x84C5D469E883128ABEE9BB23F6CE291B)
Complete name : D:Раздачи8MM.1999.x264.WEB-DL.Rip.(AVC).mkv
Format : Matroska
Format version : Version 4 / Version 2
File size : 2.18 GiB
Duration : 2h 3mn
Overall bit rate : 2 533 Kbps
Movie name : Release for Odessit
Encoded date : UTC 2013-10-01 09:34:14
Writing application : mkvmerge v6.2.0 ('Promised Land') built on Apr 28 2013 12:22:01
Writing library : libebml v1.3.0 + libmatroska v1.4.0
Video
ID : 1
Format : AVC
Format/Info : Advanced Video Codec
Format profile : [email protected]
Format settings, CABAC : Yes
Format settings, ReFrames : 8 frames
Codec ID : V_MPEG4/ISO/AVC
Duration : 2h 3mn
Bit rate : 1 700 Kbps
Width : 1 024 pixels
Height : 432 pixels
Display aspect ratio : 2.35:1
Frame rate : 23.976 fps
Color space : YUV
Chroma subsampling : 4:2:0
Bit depth : 8 bits
Scan type : Progressive
Bits/(Pixel*Frame) : 0.160
Stream size : 1.42 GiB (65%)
Writing library : x264 core 133 r2334 a3ac64b
Encoding settings : cabac=1 / ref=8 / deblock=1:-2:-1 / analyse=0x3:0x113 / me=umh / subme=11 / psy=1 / psy_rd=1.00:0.00 / mixed_ref=1 / me_range=32 / chroma_me=1 / trellis=2 / 8x8dct=1 / cqm=0 / deadzone=21,11 / fast_pskip=0 / chroma_qp_offset=0 / threads=6 / lookahead_threads=1 / sliced_threads=0 / nr=0 / decimate=1 / interlaced=0 / bluray_compat=0 / constrained_intra=0 / bframes=7 / b_pyramid=2 / b_adapt=2 / b_bias=0 / direct=1 / weightb=1 / open_gop=0 / weightp=2 / keyint=240 / keyint_min=23 / scenecut=40 / intra_refresh=0 / rc_lookahead=40 / rc=2pass / mbtree=1 / bitrate=1700 / ratetol=1.0 / qcomp=0.80 / qpmin=10 / qpmax=69 / qpstep=4 / cplxblur=20.0 / qblur=0.5 / vbv_maxrate=62500 / vbv_bufsize=50000 / nal_hrd=none / ip_ratio=1.40 / aq=1:1.00
Language : English
Default : Yes
Forced : No
Audio #1
ID : 2
Format : AC-3
Format/Info : Audio Coding 3
Mode extension : CM (complete main)
Codec ID : A_AC3
Duration : 2h 3mn
Bit rate mode : Constant
Bit rate : 448 Kbps
Channel(s) : 6 channels
Channel positions : Front: L C R, Side: L R, LFE
Sampling rate : 48.0 KHz
Bit depth : 16 bits
Compression mode : Lossy
Stream size : 395 MiB (18%)
Title : дублированный
Language : Russian
Default : Yes
Forced : No
Audio #2
ID : 3
Format : AC-3
Format/Info : Audio Coding 3
Mode extension : CM (complete main)
Codec ID : A_AC3
Duration : 2h 3mn
Bit rate mode : Constant
Bit rate : 384 Kbps
Channel(s) : 6 channels
Channel positions : Front: L C R, Side: L R, LFE
Sampling rate : 48.0 KHz
Bit depth : 16 bits
Compression mode : Lossy
Stream size : 339 MiB (15%)
Title : MVO
Language : Russian
Default : No
Forced : No
Text #1
ID : 4
Format : UTF-8
Codec ID : S_TEXT/UTF8
Codec ID/Info : UTF-8 Plain Text
Language : Russian
Default : Yes
Forced : No
Text #2
ID : 5
Format : UTF-8
Codec ID : S_TEXT/UTF8
Codec ID/Info : UTF-8 Plain Text
Language : English
Default : No
Forced : No

Скриншоты

Релиз от:
Яндекс.Метрика
Рейтинг@Mail.ru