Вот так подружка / Una Donna per Amica (Джованни Веронези / Giovanni Veronesi) [2014 г., комедия, HDRip] MVO (звук с TS)

 

Создавать темы 07-Янв-2015 04:42

-Вот так подружка / Una Donna per Amica- Производство: Италия
Год выпуска: 2014 г.
Жанр: комедия
Продолжительность: 01:28:20
Мировая премьера: 27 февраля 2014
Российская премьера: 1 января 2015, «Cinema Prestige»
Перевод: Профессиональный (многоголосый, закадровый) [звук с TS]-Режиссер: Джованни Веронези / Giovanni Veronesi
В ролях: Фабио Де Луиджи, Летиция Каста, Моника Скаттини, Джеппи Куччиари, Вирджиния Раффаель, Валерия Соларино, Валентина Лодовини, Адриано Джаннини, Антония Лискова, Флавио Монтруккио-Описание: Франческо и Клаудия, молодые, красивые и успешные, — друзья не разлей вода уже много лет. Между ними нет абсолютно никаких секретов. Они любят весело проводить время и дурачатся как малые дети. У Клаудии даже есть ключи от квартиры Франческо, куда она может заглянуть в любое время. Но однажды девушка знакомится с Джованни, и тот принимается настойчиво за ней ухаживать, а вскоре уже зовет замуж.- -Качество видео: HDRip
Контейнер: AVI
Видео кодек: XviD
Аудио кодек: AC3
Видео: 720x304 (2.37:1), 23.976 fps, XviD build 50 ~2006 kbps avg, 0.38 bit/pixel
Аудио: 48 kHz, AC3 Dolby Digital, 2/0 (L,R) ch, ~192 kbps
Cубтитры: отсутствуют

Media Info

General
Complete name : D:\Una.Donna.Per.Amica.2014.HDRip.1400MB.avi
Format : AVI
Format/Info : Audio Video Interleave
File size : 1.36 GiB
Duration : 1h 28mn
Overall bit rate : 2 208 Kbps
Writing application : VirtualDubMod 1.5.10.2 (build 2540/release)
Video
ID : 0
Format : MPEG-4 Visual
Format profile : Advanced [email protected]
Format settings, BVOP : 3
Format settings, QPel : No
Format settings, GMC : No warppoints
Format settings, Matrix : Custom
Codec ID : XVID
Codec ID/Hint : XviD
Duration : 1h 28mn
Bit rate : 2 007 Kbps
Width : 720 pixels
Height : 304 pixels
Display aspect ratio : 2.35:1
Frame rate : 23.976 fps
Color space : YUV
Chroma subsampling : 4:2:0
Bit depth : 8 bits
Scan type : Progressive
Compression mode : Lossy
Bits/(Pixel*Frame) : 0.382
Stream size : 1.24 GiB (91%)
Writing library : XviD 1.2.1 (UTC 2008-12-04)
Audio
ID : 1
Format : AC-3
Format/Info : Audio Coding 3
Mode extension : CM (complete main)
Format settings, Endianness : Big
Codec ID : 2000
Duration : 1h 28mn
Bit rate mode : Constant
Bit rate : 192 Kbps
Channel(s) : 2 channels
Channel positions : Front: L R
Sampling rate : 48.0 KHz
Bit depth : 16 bits
Compression mode : Lossy
Stream size : 121 MiB (9%)
Alignment : Split accross interleaves
Interleave, duration : 42 ms (1.00 video frame)
Interleave, preload duration : 500 ms

Скриншоты

Яндекс.Метрика
Рейтинг@Mail.ru