Лимбо / Limbo (Иван Ноэль / Iván Noel) [2014 г., Комедия, HDRip] VO

 

Создавать темы 06-Янв-2015 06:54

-Лимбо / Limbo«They've already begun...»-- Производство: Аргентина | Noel Films
Год выпуска: 2014 г.
Жанр: Комедия
Продолжительность: 01:39:57
Перевод: Любительский (одноголосый, закадровый) [PashaUP]
Режиссер: Иван Ноэль / Iván Noel-В ролях: Анна-Мария Джунта, Тото Муньос, Сабрина Рамос, Лауро Верон-Описание: Чёрная вампирская комедия. "Лимбо" - уединенная колония, в которой живут дети-вампиры в возрасте от 4 до 120 лет, ставшие жертвами бессовестных взрослых вампиров. О них заботится глубоко религиозная пожилая медсестра, которая всю свою жизнь посвятила поиску "потерянных душ", чтобы вырастить их в своей колонии для воплощения божественной воли по... созданию новой расы людей путем "естественного клонирования" (которое подразумевает, что люди превратятся в вампиров после того, как будут укушены ее подопечными). Чтобы помочь в осуществлении этих планов и защитить детей от "людей в черном", возглавляемых сыном писателя Брэма Стокера, которому противостоит юный внук графа Дракулы, она приглашает в колонию известную журналистку Алисию Делаторре.-- -Качество видео: HDRip
Контейнер: AVI
Видео кодек: XviD
Аудио кодек: AC3
Видео: 720x400 (1.80:1), 29.970 fps, XviD MPEG-4 ~1551 kbps avg, 0.18 bit/pixel
Аудио: 48 kHz, AC3 Dolby Digital, 2 ch, ~256.00 kbps avg - Rus_183
Аудио #2: 48 kHz, AC3 Dolby Digital, 2 ch, ~256.00 kbps avg - Spa_183
Cубтитры: отсутствуют-

Media Info

Общее
Полное имя : E:\Фильмы\Limbo.2014.HDRip.avi
Формат : AVI
Формат/Информация : Audio Video Interleave
Профиль формата : OpenDML
Настройки формата : rec
Размер файла : 1,45 Гбайт
Продолжительность : 1 ч. 39 м.
Общий поток : 2072 Кбит/сек
Программа кодирования : AVI-Mux GUI 1.17.8.3, Feb 16 201019:42:50
Видео
Идентификатор : 0
Формат : MPEG-4 Visual
Профиль формата : Advanced [email protected]
Параметр BVOP формата : Нет
Параметр QPel формата : Нет
Параметр GMC формата : Без точки перехода
Параметр матрицы формата : Default (MPEG)
Идентификатор кодека : XVID
Идентификатор кодека/Подсказка : XviD
Продолжительность : 1 ч. 39 м.
Битрейт : 1551 Кбит/сек
Ширина : 720 пикселей
Высота : 400 пикселей
Соотношение сторон : 16:9
Частота кадров : 29,970 кадров/сек
Цветовое пространство : YUV
Субдискретизация насыщенности : 4:2:0
Битовая глубина : 8 бит
Тип развёртки : Прогрессивная
Метод сжатия : С потерями
Бит/(Пиксели*Кадры) : 0.180
Размер потока : 1,08 Гбайт (75%)
Библиотека кодирования : XviD 62
Аудио #1
Идентификатор : 1
Формат : AC-3
Формат/Информация : Audio Coding 3
Расширение режима : CM (complete main)
Параметр Endianness формата : Big
Идентификатор кодека : 2000
Продолжительность : 1 ч. 39 м.
Вид битрейта : Постоянный
Битрейт : 256 Кбит/сек
Каналы : 2 канала
Расположение каналов : Front: L R
Частота : 48,0 КГц
Битовая глубина : 16 бит
Метод сжатия : С потерями
Размер потока : 183 Мбайт (12%)
Выравнивание : Соединение по промежуткам
Продолжительность промежутка : 64 мс. (1,92 видеокадра)
Время предзагрузки промежутка : 192 мс.
Заголовок : Rus_183
Аудио #2
Идентификатор : 2
Формат : AC-3
Формат/Информация : Audio Coding 3
Расширение режима : CM (complete main)
Параметр Endianness формата : Big
Идентификатор кодека : 2000
Продолжительность : 1 ч. 39 м.
Вид битрейта : Постоянный
Битрейт : 256 Кбит/сек
Каналы : 2 канала
Расположение каналов : Front: L R
Частота : 48,0 КГц
Битовая глубина : 16 бит
Метод сжатия : С потерями
Размер потока : 183 Мбайт (12%)
Выравнивание : Соединение по промежуткам
Продолжительность промежутка : 64 мс. (1,92 видеокадра)
Время предзагрузки промежутка : 192 мс.
Заголовок : Spa_183
-Скриншоты
Яндекс.Метрика
Рейтинг@Mail.ru