Дружба и никакого секса? / What If (2013) BDRip-AVC [H.264]

 

Создавать темы 05-Янв-2015 17:21

-Дружба и никакого секса? / What If (2013) BDRip-AVC [H.264]- Производство: Ирландия, Канада
Жанр: Мелодрама, Комедия
Режиссер: Майкл Даус
Продюсер: Элан Мэстай, Т.Дж. Дейв, Майкл Ринальди
Актеры: Дэниэл Рэдклифф, Зои Казан, Меган Парк, Адам Драйвер, Маккензи Дэвис, Рейф Сполл, Люсиус Хойос, Джемайма Рупер, Томми-Амбер Пири, Меган Хефферн
Описание фильма:
Двадцатилетние Уоллес и Шантри познакомились на вечеринке и между ними сразу пробежала искра. Молодые люди начинают общаться и обнаруживают, что они - родственные души, у которых очень много общего. Они ежедневно переписываются через электронную почту и смс и регулярно ходят вместе ужинать. В общем, всё идёт хорошо и тут вдруг выясняется одна маленькая деталь: у нее уже есть парень...
Перевод: Дублированный [iTunes Russia]
Субтитры: Вшитые отключаемые
Язык субтитров: Английский

Дата мировой премьеры: 7 сентября 2013
Дата российской премьеры: 2 октября 2014, «Централ Партнершип»
Дата выхода DVD релиза: 13 января 2015, «CD Land», ...
Продолжительность: 01:37:38
Качество видео: BDRip-AVC [H.264]
Видеокодек: MPEG-4 AVC/H.264
Битрейт видео: ~2408 kb/s
Размер кадра: 1024 х 432
Аудио 1: AC3, 6 каналов, 384 Кбит/сек | Русский
Аудио 2: AC3, 6 каналов, 384 Кбит/сек | Английский

MediaInfo:

Формат : Matroska
Версия формата : Version 4 / Version 2
Размер файла : 2,18 Гбайт
Продолжительность : 1 ч. 37 м.
Общий поток : 3197 Кбит/сек
Название фильма : Druwba.i.nikakogo.seksa.2013.BDRip-AVC [Tellurian 1]
Дата кодирования : UTC 2015-01-04 09:50:38
Программа кодирования : mkvmerge v7.2.0 ('On Every Street') 64bit built on Sep 13 2014 15:52:10
Библиотека кодирования : libebml v1.3.0 + libmatroska v1.4.1
_STATISTICS_WRITING_APP : mkvmerge v7.2.0 ('On Every Street') 64bit built on Sep 13 2014 15:52:10
_STATISTICS_WRITING_DATE_UTC : 2015-01-04 09:50:38
_STATISTICS_TAGS : BPS DURATION NUMBER_OF_FRAMES NUMBER_OF_BYTES
DURATION : 01:37:38.080000000
NUMBER_OF_FRAMES : 183065
NUMBER_OF_BYTES : 281187840
Видео
Идентификатор : 1
Формат : AVC
Формат/Информация : Advanced Video Codec
Профиль формата : [url=mailto:[email protected]][email protected][/url]
Параметр CABAC формата : Да
Параметр ReFrames формата : 9 кадров
Идентификатор кодека : V_MPEG4/ISO/AVC
Продолжительность : 1 ч. 37 м.
Битрейт : 2408 Кбит/сек
Ширина : 1024 пикселя
Высота : 432 пикселя
Соотношение сторон : 2,40:1
Режим частоты кадров : Постоянный
Частота кадров : 23,976 кадра/сек
Цветовое пространство : YUV
Субдискретизация насыщенности : 4:2:0
Битовая глубина : 8 бит
Тип развёртки : Прогрессивная
Бит/(Пиксели*Кадры) : 0.227
Размер потока : 1,61 Гбайт (74%)
Библиотека кодирования : x264 core 142 r2431 ac76440
Настройки программы : cabac=1 / ref=9 / deblock=1:-3:-3 / analyse=0x3:0x133 / me=umh / subme=11 / psy=1 / psy_rd=1.00:0.08 / mixed_ref=1 / me_range=32 / chroma_me=1 / trellis=2 / 8x8dct=1 / cqm=0 / deadzone=21,11 / fast_pskip=0 / chroma_qp_offset=-3 / threads=6 / lookahead_threads=1 / sliced_threads=0 / nr=0 / decimate=0 / interlaced=0 / bluray_compat=0 / constrained_intra=0 / bframes=10 / b_pyramid=2 / b_adapt=2 / b_bias=0 / direct=3 / weightb=1 / open_gop=0 / weightp=2 / keyint=240 / keyint_min=23 / scenecut=40 / intra_refresh=0 / rc_lookahead=60 / rc=2pass / mbtree=1 / bitrate=2408 / ratetol=1.0 / qcomp=0.70 / qpmin=0 / qpmax=69 / qpstep=4 / cplxblur=20.0 / qblur=0.5 / vbv_maxrate=50000 / vbv_bufsize=62500 / nal_hrd=none / filler=0 / ip_ratio=1.40 / aq=1:0.80
Default : Да
Forced : Нет
Аудио #1
Идентификатор : 2
Формат : AC-3
Формат/Информация : Audio Coding 3
Расширение режима : CM (complete main)
Параметр Endianness формата : Big
Идентификатор кодека : A_AC3
Продолжительность : 1 ч. 37 м.
Вид битрейта : Постоянный
Битрейт : 384 Кбит/сек
Каналы : 6 каналов
Расположение каналов : Front: L C R, Side: L R, LFE
Частота : 48,0 КГц
Битовая глубина : 16 бит
Метод сжатия : С потерями
Размер потока : 268 Мбайт (12%)
Заголовок : AC3 5.1 @ 384 kbps - DUB, iTunes
Язык : Russian
Default : Да
Forced : Нет
Аудио #2
Идентификатор : 3
Формат : AC-3
Формат/Информация : Audio Coding 3
Расширение режима : CM (complete main)
Параметр Endianness формата : Big
Идентификатор кодека : A_AC3
Продолжительность : 1 ч. 37 м.
Вид битрейта : Постоянный
Битрейт : 384 Кбит/сек
Каналы : 6 каналов
Расположение каналов : Front: L C R, Side: L R, LFE
Частота : 48,0 КГц
Битовая глубина : 16 бит
Метод сжатия : С потерями
Размер потока : 268 Мбайт (12%)
Язык : English
Default : Нет
Forced : Нет
Текст
Идентификатор : 4
Формат : PGS
Режим смешивания : zlib
Идентификатор кодека : S_HDMV/PGS
Идентификатор кодека/Информация : The same subtitle format used on BDs/HD-DVDs
Язык : English
Default : Нет
Forced : Нет
Меню
00:00:00.000 : en:Chapter 1
00:07:00.128 : en:Chapter 2
00:12:45.014 : en:Chapter 3
00:16:18.102 : en:Chapter 4
00:23:37.541 : en:Chapter 5
00:31:23.464 : en:Chapter 6
00:35:11.359 : en:Chapter 7
00:44:23.285 : en:Chapter 8
00:49:47.401 : en:Chapter 9
00:54:00.320 : en:Chapter 10
01:01:46.411 : en:Chapter 11
01:07:39.638 : en:Chapter 12
01:12:02.109 : en:Chapter 13
01:17:29.227 : en:Chapter 14
01:26:56.002 : en:Chapter 15
01:30:29.924 : en:Chapter 16
Скриншоты:
-Время раздачи: 24/7 (круглосуточно)
Яндекс.Метрика
Рейтинг@Mail.ru