[ Сегодня на трекере фрилич! Идет свободное скачивание без начисления Download ]

Асмодексия / Asmodexia (2014) WEB-DLRip

 

Создавать темы 05-Янв-2015 17:10

-Асмодексия / Asmodexia (2014) WEB-DLRip- Год выпуска: 2014
Производство: Испания
Жанр: Ужасы
Режиссер: Марк Каррете
Актеры: Альберт Баро, Марта Бельмонте, Пепо Бласко, Рамон Каналс, Марина Дюран, Льюис Марко, Ирена Монтала, Клаудия Понс, Мирейа Рос
Описание фильма:
Кинокартина знакомит нас с пятью днями из жизни пастора Элоя де Пальмы и его юной внучки Альбы. Эти двое путешествуют по всей Испании и изгоняют бесов из людей, которые стали одержимы. Путь, который они избрали для себя, очень тяжёл и приносит им множество страданий. Однако, Элой и Альба знают, что своими действиями спасают души людей, ставших жертвами демонов, а потому не намерены опускать руки. Но когда дороги приводят их в Барселону, они сталкиваются с такими чудовищными проявлениями одержимости, что сами начинают сомневаться в успехе своей миссии..
Перевод: Двуголосый закадровый
Озвучка: DeadSno & den904
Cубтитры: Отсутсвуют

Продолжительность: 01:20:57
Качество видео: WEB-DLRip
Дата мировой премьеры: 19 апреля 2014
Видеокодек: Xvid
Битрейт видео: 1750 kb/s
Размер кадра: 720x304
Аудиокодек: AC3, (6 ch) ,48,0 КГц
Битрейт аудио: 384 kb/s
СэмплCкачать

Mediainfo:

Общее
Полное имя                               : C:\Мои Файлы\Фильмы\Asmodexia.2014.WEB-DLRip.avi
Формат                                   : AVI
Формат/Информация                        : Audio Video Interleave
Размер файла                             : 1,48 Гбайт
Продолжительность                        : 1 ч. 20 м.
Общий поток                              : 2614 Кбит/сек
Программа кодирования                    : VirtualDubMod 1.5.10.2 (build 2542/release)
Библиотека кодирования                   : VirtualDubMod build 2542/release
Видео
Идентификатор                            : 0
Формат                                   : MPEG-4 Visual
Профиль формата                          : Advanced [email protected]
Параметр BVOP формата                    : 2
Параметр QPel формата                    : Нет
Параметр GMC формата                     : Без точки перехода
Параметр матрицы формата                 : Default (H.263)
Режим смешивания                         : Сжатый битовый поток
Идентификатор кодека                     : XVID
Идентификатор кодека/Подсказка           : XviD
Продолжительность                        : 1 ч. 20 м.
Битрейт                                  : 2220 Кбит/сек
Ширина                                   : 720 пикселей
Высота                                   : 304 пикселя
Соотношение сторон                       : 2,35:1
Частота кадров                           : 23,976 кадра/сек
Цветовое пространство                    : YUV
Субдискретизация насыщенности            : 4:2:0
Битовая глубина                          : 8 бит
Тип развёртки                            : Прогрессивная
Метод сжатия                             : С потерями
Бит/(Пиксели*Кадры)                      : 0.423
Размер потока                            : 1,26 Гбайт (85%)
Библиотека кодирования                   : XviD 64
Аудио
Идентификатор                            : 1
Формат                                   : AC-3
Формат/Информация                        : Audio Coding 3
Расширение режима                        : CM (complete main)
Параметр Endianness формата              : Big
Идентификатор кодека                     : 2000
Продолжительность                        : 1 ч. 20 м.
Вид битрейта                             : Постоянный
Битрейт                                  : 384 Кбит/сек
Каналы                                   : 6 каналов
Расположение каналов                     : Front: L C R, Side: L R, LFE
Частота                                  : 48,0 КГц
Битовая глубина                          : 16 бит
Метод сжатия                             : С потерями
Размер потока                            : 222 Мбайт (15%)
Выравнивание                             : Разделение по промежуткам
Продолжительность промежутка             : 42  мс. (1,00 видеокадр)
Время предзагрузки промежутка            : 500  мс.
Скриншоты:
-Время раздачи: 09.00-15:00. 20.00-24.00
Яндекс.Метрика
Рейтинг@Mail.ru