Педаль до упора / Borning (2014) HDRip [H.264] [VO]

 

Создавать темы 05-Янв-2015 06:08

-Педаль до упора / Borning (2014) HDRip- Год выпуска: 2014
Производство: Норвегия
Жанр: Боевик, комедия
Режиссер: Хальвард Брейн
Актеры: Андерс Баасмо Кристиансен, Тронд Хальбо, Ида Хьюсой, Дженни Скавлан, Отто Йесперсен, Оскар Люндвольд, Хенрик Местад
Описание фильма:
У Роя одна, но пламенная страсть – гонки. И как раз, когда он готовится к важному соревнованию, на горизонте появляется 14-летняя дочь, требующая к себе повышенного внимания. Увлекшись выяснением отношений с ребенком, Рой проигрывает заезд, и теперь у него только один шанс восстановить свою репутацию – участие в гонке «Северный Мыс». Кто первым доберется из Осло до самой северной точки Норвегии, тот и будет признан величайшим гонщиком всех времен и народов…
Перевод: Любительский одноголосый [Andi]
Субтитры: Отсутствуют
Продолжительность: 01:32:52
Качество видео: HDRip (AVC)

Видеокодек: MPEG-4 AVC
Битрейт видео: ~2011 Кбит/с
Размер кадра: 1024x428
Аудио:
1. AC3, 6 ch, 448 Кбит/с - русский
2. AC3, 6 ch, 384 Кбит/с - норвежский

MediaInfo:

Общее
Уникальный идентификатор : 250456795560098988971862290417281472433 (0xBC6C39676DBF1A91804C69BBDB1517B1)
Полное имя : C:\NNM\Педаль до упора\Pedalj do upora 2014 HDRip AVC.mkv
Формат : Matroska
Версия формата : Version 4 / Version 2
Размер файла : 1,84 Гбайт
Продолжительность : 1 ч. 32 м.
Общий поток : 2843 Кбит/сек
Программа кодирования : mkvmerge v6.6.0 ('The Edge Of The In Between') built on Dec 1 2013 17:55:00
Библиотека кодирования : libebml v1.3.0 + libmatroska v1.4.1
Видео
Идентификатор : 1
Формат : AVC
Формат/Информация : Advanced Video Codec
Профиль формата : [url=mailto:[email protected]][email protected][/url]
Параметр CABAC формата : Да
Параметр ReFrames формата : 12 кадров
Идентификатор кодека : V_MPEG4/ISO/AVC
Продолжительность : 1 ч. 32 м.
Битрейт : 2011 Кбит/сек
Ширина : 1024 пикселя
Высота : 428 пикселей
Соотношение сторон : 2,40:1
Частота кадров : 24,000 кадра/сек
Цветовое пространство : YUV
Субдискретизация насыщенности : 4:2:0
Битовая глубина : 8 бит
Тип развёртки : Прогрессивная
Бит/(Пиксели*Кадры) : 0.191
Размер потока : 1,27 Гбайт (69%)
Заголовок : Enigma-Vladislav71
Библиотека кодирования : x264 core 133 r2334 a3ac64b
Настройки программы : cabac=1 / ref=12 / deblock=1:-2:-2 / analyse=0x3:0x113 / me=umh / subme=10 / psy=1 / psy_rd=1.00:0.15 / mixed_ref=1 / me_range=32 / chroma_me=1 / trellis=2 / 8x8dct=1 / cqm=0 / deadzone=21,11 / fast_pskip=0 / chroma_qp_offset=-3 / threads=12 / lookahead_threads=2 / sliced_threads=0 / nr=0 / decimate=0 / interlaced=0 / bluray_compat=0 / constrained_intra=0 / bframes=9 / b_pyramid=2 / b_adapt=2 / b_bias=0 / direct=3 / weightb=1 / open_gop=0 / weightp=2 / keyint=240 / keyint_min=24 / scenecut=40 / intra_refresh=0 / rc=2pass / mbtree=0 / bitrate=2011 / ratetol=1.0 / qcomp=0.60 / qpmin=0 / qpmax=69 / qpstep=4 / cplxblur=20.0 / qblur=0.5 / ip_ratio=1.40 / pb_ratio=1.30 / aq=1:1.00
Язык : English
Default : Да
Forced : Нет
Основные цвета : BT.709-5, BT.1361, IEC 61966-2-4, SMPTE RP177
Характеристики трансфера : BT.709-5, BT.1361
Коэффициенты матрицы : BT.709-5, BT.1361, IEC 61966-2-4 709, SMPTE RP177
Аудио #1
Идентификатор : 2
Формат : AC-3
Формат/Информация : Audio Coding 3
Расширение режима : CM (complete main)
Идентификатор кодека : A_AC3
Продолжительность : 1 ч. 32 м.
Вид битрейта : Постоянный
Битрейт : 448 Кбит/сек
Каналы : 6 каналов
Расположение каналов : Front: L C R, Side: L R, LFE
Частота : 48,0 КГц
Битовая глубина : 16 бит
Метод сжатия : С потерями
Размер потока : 298 Мбайт (16%)
Заголовок : VO Andi
Язык : Russian
Default : Да
Forced : Нет
Аудио #2
Идентификатор : 3
Формат : AC-3
Формат/Информация : Audio Coding 3
Расширение режима : CM (complete main)
Идентификатор кодека : A_AC3
Продолжительность : 1 ч. 32 м.
Вид битрейта : Постоянный
Битрейт : 384 Кбит/сек
Каналы : 6 каналов
Расположение каналов : Front: L C R, Side: L R, LFE
Частота : 48,0 КГц
Битовая глубина : 16 бит
Метод сжатия : С потерями
Размер потока : 255 Мбайт (14%)
Язык : Norwegian
Default : Нет
Forced : Нет
Меню
00:00:00.000 : no:00:00:00.000
00:04:47.000 : no:00:04:47.000
00:12:54.000 : no:00:12:54.000
00:20:37.333 : no:00:20:37.333
00:27:40.417 : no:00:27:40.417
00:32:04.125 : no:00:32:04.125
00:35:06.292 : no:00:35:06.292
00:41:29.042 : no:00:41:29.042
00:48:02.542 : no:00:48:02.542
00:53:48.292 : no:00:53:48.292
01:00:37.958 : no:01:00:37.958
01:06:21.958 : no:01:06:21.958
01:11:04.167 : no:01:11:04.167
01:14:43.625 : no:01:14:43.625
01:23:58.083 : no:01:23:58.083
01:29:22.708 : no:01:29:22.708
Скриншоты:-Время раздачи:Круглосуточно до 10 скачавших
Яндекс.Метрика
Рейтинг@Mail.ru