Очень хорошие девочки / Very Good Girls (Наоми Фонер / Naomi Foner) [2013 г., драма, HDRip] MVO (Лицензия)

 

Создавать темы 05-Янв-2015 05:26

-Очень хорошие девочки / Very Good Girls- Производство: США / Groundswell Productions, Herrick Productions
Год выпуска: 2013 г.
Жанр: драма
Продолжительность: 01:30:52
Мировая премьера: 22 января 2013
Перевод: Профессиональный (многоголосый, закадровый) [Лицензия]-Режиссер: Наоми Фонер / Naomi Foner
В ролях: Дакота Фаннинг, Элизабет Олсен, Бойд Холбрук, Эллен Баркин, Ричард Дрейфусс, Деми Мур, Стерлинг Джонс, Lenny Arroyo-Platt, Кирнан Шипка, Клер Фоли-Описание: Две нью-йоркские девушки договариваются потерять свою девственность в первое лето после окончания школы. Но получается так, что они обе влюбляются в одного уличного артиста…- -Качество видео: HDRip
Контейнер: AVI
Видео кодек: XviD
Аудио кодек: AC3
Видео: 720x304 (2.37:1), 23.976 fps, XviD build 50 ~1696 kbps avg, 0.32 bit/pixel
Аудио: 48 kHz, AC3 Dolby Digital, 3/2 (L,C,R,l,r) + LFE ch, ~448 kbps
Cубтитры: отсутствуют

Media Info

General
Complete name : D:\Very.Good.Girls.2013.P.HDRip.1400Mb.avi
Format : AVI
Format/Info : Audio Video Interleave
File size : 1.37 GiB
Duration : 1h 30mn
Overall bit rate : 2 154 Kbps
Writing application : VirtualDubMod 1.5.10.2 (build 2540/release)
Writing library : VirtualDubMod build 2540/release
Video
ID : 0
Format : MPEG-4 Visual
Format profile : Advanced [email protected]
Format settings, BVOP : 2
Format settings, QPel : No
Format settings, GMC : No warppoints
Format settings, Matrix : Default (MPEG)
Codec ID : XVID
Codec ID/Hint : XviD
Duration : 1h 30mn
Bit rate : 1 697 Kbps
Width : 720 pixels
Height : 304 pixels
Display aspect ratio : 2.35:1
Frame rate : 23.976 fps
Color space : YUV
Chroma subsampling : 4:2:0
Bit depth : 8 bits
Scan type : Progressive
Compression mode : Lossy
Bits/(Pixel*Frame) : 0.323
Stream size : 1.08 GiB (79%)
Writing library : XviD 1.2.1 (UTC 2008-12-04)
Audio
ID : 1
Format : AC-3
Format/Info : Audio Coding 3
Mode extension : CM (complete main)
Format settings, Endianness : Big
Codec ID : 2000
Duration : 1h 30mn
Bit rate mode : Constant
Bit rate : 448 Kbps
Channel(s) : 6 channels
Channel positions : Front: L C R, Side: L R, LFE
Sampling rate : 48.0 KHz
Bit depth : 16 bits
Compression mode : Lossy
Stream size : 291 MiB (21%)
Alignment : Split accross interleaves
Interleave, duration : 42 ms (1.00 video frame)
Interleave, preload duration : 500 ms

Скриншоты

Яндекс.Метрика
Рейтинг@Mail.ru