Люди Икс: Дни минувшего будущего / X-Men: Days of Future Past (2014) DVD5 | сжатый

 

Создавать темы 03-Янв-2015 00:32

Информация о фильме
Название: Люди Икс: Дни минувшего будущего
Оригинальное название: X-Men: Days of Future Past
Год выхода: 2014
Жанр: фантастика, боевик, триллер, приключения
Режиссер: Брайан Сингер
В ролях: Джеймс МакЭвой, Майкл Фассбендер, Хью Джекман, Дженнифер Лоуренс, Николас Холт, Питер Динклэйдж, Иэн МакКеллен, Патрик Стюарт, Эллен Пейдж, Холли Берри
О фильме:
В недалёком будущем мутанты близки к истреблению роботами-охотниками на мутантов Стражами. Единственная надежда для мутантов выжить — предотвратить череду роковых событий, приведших к появлению Стражей. С помощью своих способностей, Китти Прайд перемещает сознание Росомахи в его молодое тело в 1973 год. В прошлом всё оказывается не так радужно: молодой Профессор Икс окончательно разочарован в своих идеях, Магнето содержится в тюрьме глубоко под землёй, а человечество не знает как реагировать на широкое появление мутантов…


детям до 13 лет просмотр не желателен
Страна: США, Великобритания
Студия: 20th Century Fox Film Corporation, Marvel Entertainment, TSG Entertainment
Продолжительность: 131 мин. / 02:11
Перевод: полное дублирование
Файл
Кодек: MPEG2
Качество: DVD5 (сжатый)
Видео: PAL 16:9 ([email protected]) VBR 3825 Kbps, 25.000 fps
Аудио 1: Dolby AC3, 6 ch, 48.0 KHz, 448 Kbps (английский)
Аудио 2: Dolby AC3, 6 ch, 48.0 KHz, 384 Kbps (русский)
Субтитры: английские, русские, украинские, болгарские, хорватские, чешские, эстонские, латышские, литовские, сербские, словацкие, словенские

Процесс изготовления диска

Сжатие видео - 24,9 %.
При помощи DVDRemake Pro удалены заставки, предупреждения, реклама, доп.материалы, чешская и украинская звуковые дорожки.
Навигация сохранена, неработающие кнопки затерты и закрыты.
Сжималось связкой DVD Rebuilder + CCE/Procoder в 9 проходов.
Автор DVD5 Gahan Dave

MediaInfo

General
Complete name : D:X-Men. Days of Future Past (2014) DVD5VIDEO_TSVTS_09_1.VOB
Format : MPEG-PS
File size : 1 024 MiB
Duration : 30mn 7s
Overall bit rate mode : Variable
Overall bit rate : 4 751 Kbps
Video
ID : 224 (0xE0)
Format : MPEG Video
Format version : Version 2
Format profile : [email protected]
Format settings, BVOP : Yes
Format settings, Matrix : Custom
Format settings, GOP : Variable
Duration : 30mn 7s
Bit rate mode : Variable
Bit rate : 3 825 Kbps
Maximum bit rate : 6 826 Kbps
Width : 720 pixels
Height : 576 pixels
Display aspect ratio : 16:9
Frame rate : 25.000 fps
Standard : PAL
Color space : YUV
Chroma subsampling : 4:2:0
Bit depth : 8 bits
Scan type : Progressive
Scan order : Top Field First
Compression mode : Lossy
Bits/(Pixel*Frame) : 0.369
Time code of first frame : 00:00:00:00
Time code source : Group of pictures header
Stream size : 824 MiB (80%)
Audio #1
ID : 189 (0xBD)-128 (0x80)
Format : AC-3
Format/Info : Audio Coding 3
Mode extension : CM (complete main)
Format settings, Endianness : Big
Muxing mode : DVD-Video
Duration : 30mn 7s
Bit rate mode : Constant
Bit rate : 448 Kbps
Channel(s) : 6 channels
Channel positions : Front: L C R, Side: L R, LFE
Sampling rate : 48.0 KHz
Bit depth : 16 bits
Compression mode : Lossy
Stream size : 96.5 MiB (9%)
Audio #2
ID : 189 (0xBD)-129 (0x81)
Format : AC-3
Format/Info : Audio Coding 3
Mode extension : CM (complete main)
Format settings, Endianness : Big
Muxing mode : DVD-Video
Duration : 30mn 7s
Bit rate mode : Constant
Bit rate : 384 Kbps
Channel(s) : 6 channels
Channel positions : Front: L C R, Side: L R, LFE
Sampling rate : 48.0 KHz
Bit depth : 16 bits
Compression mode : Lossy
Stream size : 82.7 MiB (8%)
Text #1
ID : 189 (0xBD)-32 (0x20)
Format : RLE
Format/Info : Run-length encoding
Muxing mode : DVD-Video
Duration : 30mn 4s
Text #2
ID : 189 (0xBD)-33 (0x21)
Format : RLE
Format/Info : Run-length encoding
Muxing mode : DVD-Video
Duration : 30mn 4s
Text #3
ID : 189 (0xBD)-34 (0x22)
Format : RLE
Format/Info : Run-length encoding
Muxing mode : DVD-Video
Duration : 30mn 4s
Text #4
ID : 189 (0xBD)-35 (0x23)
Format : RLE
Format/Info : Run-length encoding
Muxing mode : DVD-Video
Duration : 30mn 4s
Text #5
ID : 189 (0xBD)-36 (0x24)
Format : RLE
Format/Info : Run-length encoding
Muxing mode : DVD-Video
Duration : 30mn 4s
Text #6
ID : 189 (0xBD)-37 (0x25)
Format : RLE
Format/Info : Run-length encoding
Muxing mode : DVD-Video
Duration : 30mn 4s
Text #7
ID : 189 (0xBD)-38 (0x26)
Format : RLE
Format/Info : Run-length encoding
Muxing mode : DVD-Video
Duration : 30mn 4s
Text #8
ID : 189 (0xBD)-39 (0x27)
Format : RLE
Format/Info : Run-length encoding
Muxing mode : DVD-Video
Duration : 30mn 4s
Text #9
ID : 189 (0xBD)-40 (0x28)
Format : RLE
Format/Info : Run-length encoding
Muxing mode : DVD-Video
Duration : 30mn 4s
Text #10
ID : 189 (0xBD)-41 (0x29)
Format : RLE
Format/Info : Run-length encoding
Muxing mode : DVD-Video
Duration : 30mn 4s
Text #11
ID : 189 (0xBD)-42 (0x2A)
Format : RLE
Format/Info : Run-length encoding
Muxing mode : DVD-Video
Duration : 30mn 4s
Text #12
ID : 189 (0xBD)-43 (0x2B)
Format : RLE
Format/Info : Run-length encoding
Muxing mode : DVD-Video
Duration : 30mn 4s
Text #13
ID : 189 (0xBD)-44 (0x2C)
Format : RLE
Format/Info : Run-length encoding
Muxing mode : DVD-Video
Duration : 30mn 4s
Text #14
ID : 189 (0xBD)-45 (0x2D)
Format : RLE
Format/Info : Run-length encoding
Muxing mode : DVD-Video
Duration : 30mn 4s
Text #15
ID : 189 (0xBD)-46 (0x2E)
Format : RLE
Format/Info : Run-length encoding
Muxing mode : DVD-Video
Duration : 30mn 4s
Text #16
ID : 189 (0xBD)-47 (0x2F)
Format : RLE
Format/Info : Run-length encoding
Muxing mode : DVD-Video
Duration : 30mn 4s
Text #17
ID : 189 (0xBD)-48 (0x30)
Format : RLE
Format/Info : Run-length encoding
Muxing mode : DVD-Video
Duration : 30mn 4s
Text #18
ID : 189 (0xBD)-49 (0x31)
Format : RLE
Format/Info : Run-length encoding
Muxing mode : DVD-Video
Duration : 30mn 4s
Text #19
ID : 189 (0xBD)-50 (0x32)
Format : RLE
Format/Info : Run-length encoding
Muxing mode : DVD-Video
Duration : 30mn 4s
Text #20
ID : 189 (0xBD)-51 (0x33)
Format : RLE
Format/Info : Run-length encoding
Muxing mode : DVD-Video
Duration : 30mn 4s
Text #21
ID : 189 (0xBD)-52 (0x34)
Format : RLE
Format/Info : Run-length encoding
Muxing mode : DVD-Video
Duration : 30mn 4s
Text #22
ID : 189 (0xBD)-53 (0x35)
Format : RLE
Format/Info : Run-length encoding
Muxing mode : DVD-Video
Duration : 30mn 4s
Text #23
ID : 189 (0xBD)-54 (0x36)
Format : RLE
Format/Info : Run-length encoding
Muxing mode : DVD-Video
Duration : 30mn 4s
Text #24
ID : 189 (0xBD)-55 (0x37)
Format : RLE
Format/Info : Run-length encoding
Muxing mode : DVD-Video
Duration : 30mn 4s
Text #25
ID : 189 (0xBD)-56 (0x38)
Format : RLE
Format/Info : Run-length encoding
Muxing mode : DVD-Video
Text #26
ID : 189 (0xBD)-57 (0x39)
Format : RLE
Format/Info : Run-length encoding
Muxing mode : DVD-Video
Text #27
ID : 189 (0xBD)-58 (0x3A)
Format : RLE
Format/Info : Run-length encoding
Muxing mode : DVD-Video
Text #28
ID : 189 (0xBD)-59 (0x3B)
Format : RLE
Format/Info : Run-length encoding
Muxing mode : DVD-Video
Text #29
ID : 189 (0xBD)-60 (0x3C)
Format : RLE
Format/Info : Run-length encoding
Muxing mode : DVD-Video
Text #30
ID : 189 (0xBD)-61 (0x3D)
Format : RLE
Format/Info : Run-length encoding
Muxing mode : DVD-Video
Text #31
ID : 189 (0xBD)-62 (0x3E)
Format : RLE
Format/Info : Run-length encoding
Muxing mode : DVD-Video
Text #32
ID : 189 (0xBD)-63 (0x3F)
Format : RLE
Format/Info : Run-length encoding
Muxing mode : DVD-Video
Menu

Скриншоты

Яндекс.Метрика
Рейтинг@Mail.ru