Падение / The Fall / Сезон: 1 / Серии: 4 из 6 (Аллан Кабитт / Allan Cubitt) [2013 г., триллер, драма, ..., WEB-DLRip] MVO [LostFilm] + Original (Eng) [Обновляемая]

 

Создавать темы 01-Янв-2015 07:19

Падение / The Fall
«A serial killer is on the loose... And only she can catch him»
- Русское название: Падение
Оригинальное название: The Fall
Страна: Великобритания
Год выпуска: 2013
Жанр: триллер, драма, ...-Озвучка: Студия
Перевод: Многоголосый закадровый, профессиональный
Оригинальный аудиопоток: английский-Премьера (мир): 12 мая 2013, ...-Режиссер: Аллан Кабитт / Allan Cubitt, Якоб Вербрюгген / Jakob Verbruggen
В главных ролях: Джиллиан Андерсон (Стелла Гибсон), Джейми Дорнан (Пол Спектор), Валин Кейн (Роуз Стэгг), Ниам МакГрэйди (Дэниель Фэррингтон), Джон Линч (Джим Бернс), Брона Во (Салли Энн Спектор), Шейнин Бреннан (Лиз Тайлер), Лаура Доннели (Сара Кэй) ...-Описание фильма:
«Падение» — психологический триллер от телеканала BBC Twо, который моментально привлек внимание зрителей. Это произошло не только благодаря звезде «Секретных материалов» (The X Files) Джиллиан Андерсон, исполнившей роль высококлассного детектива Стеллы Гибсон, но и за счет убедительного образа главного злодея, маньяка-душителя Пола Спектора (Джейми Дорнан). Главной особенностью шоу является напряженное параллельное повествование, в котором каждый аспект жизни преступника, каждый его шаг находит отражение в быту и профессиональной деятельности женщины, открывшей на него охоту. Все это в сочетании с северным колоритом и искусным монтажом делает «Падение» одним из самых изысканных, интригующих и эффектных британских триллеров на современном ТВ.-Сезон: 1
Серии: 4 из 6 серий
Продолжительность: ~ 00:59:00 мин серия-Качество видео: WEB-DLRip
Формат: AVI
Видеокодек: XviD
Аудиокодек: AC-3
Видео: MPEG-4 Visual at 1500 Кбит/сек: 720 x 400 (1.800) at 25.000 fps, 0.21 Бит/Пиксели
Аудио Rus: AC-3 at 192 Кбит/сек: 2 канала, 48,0 КГц |LostFilm|
Аудио Eng: AC-3 at 192 Кбит/сек: 2 канала, 48,0 КГц |Original|
-

Список серий:

  • Погружение в бездну (Dark Descent)
  • Зримая тьма (Darkness Visible)
  • Бесстыдство и вино (Insolence & Wine)
  • Моя отважная песнь (My Adventurous Song)
-

MediaInfo:

Общее
Полное имя : C:\Users\kogesan\Desktop\Корзина\The.Fall.S01E01..rus.LostFilm.TV.avi
Формат : AVI
Формат/Информация : Audio Video Interleave
Размер файла : 804 Мбайт
Продолжительность : 59 м.
Общий поток : 1898 Кбит/сек
Программа кодирования : VirtualDubMod 1.5.10.2 (build 2540/release)
Библиотека кодирования : VirtualDubMod build 2540/release
Видео
Идентификатор : 0
Формат : MPEG-4 Visual
Профиль формата : Advanced [email protected]
Параметр BVOP формата : 2
Параметр QPel формата : Нет
Параметр GMC формата : Без точки перехода
Параметр матрицы формата : Default (MPEG)
Идентификатор кодека : XVID
Идентификатор кодека/Подсказка : XviD
Продолжительность : 59 м.
Битрейт : 1500 Кбит/сек
Ширина : 720 пикселей
Высота : 400 пикселей
Соотношение сторон : 16:9
Частота кадров : 25,000 кадров/сек
Цветовое пространство : YUV
Субдискретизация насыщенности : 4:2:0
Битовая глубина : 8 бит
Тип развёртки : Прогрессивная
Метод сжатия : С потерями
Бит/(Пиксели*Кадры) : 0.208
Размер потока : 635 Мбайт (79%)
Библиотека кодирования : XviD 1.2.0.dev47 (UTC 2006-11-01)
Аудио #1
Идентификатор : 1
Формат : AC-3
Формат/Информация : Audio Coding 3
Расширение режима : CM (complete main)
Параметр Endianness формата : Big
Идентификатор кодека : 2000
Продолжительность : 59 м.
Вид битрейта : Постоянный
Битрейт : 192 Кбит/сек
Каналы : 2 канала
Расположение каналов : Front: L R
Частота : 48,0 КГц
Битовая глубина : 16 бит
Метод сжатия : С потерями
Размер потока : 81,3 Мбайт (10%)
Выравнивание : Разделение по промежуткам
Продолжительность промежутка : 40 мс. (1,00 видеокадр)
Время предзагрузки промежутка : 500 мс.
Аудио #2
Идентификатор : 2
Формат : AC-3
Формат/Информация : Audio Coding 3
Расширение режима : CM (complete main)
Параметр Endianness формата : Big
Идентификатор кодека : 2000
Продолжительность : 59 м.
Вид битрейта : Постоянный
Битрейт : 192 Кбит/сек
Каналы : 2 канала
Расположение каналов : Front: L R
Частота : 48,0 КГц
Битовая глубина : 16 бит
Метод сжатия : С потерями
Размер потока : 81,3 Мбайт (10%)
Выравнивание : Разделение по промежуткам
Продолжительность промежутка : 40 мс. (1,00 видеокадр)
Время предзагрузки промежутка : 500 мс.
-

Скриншот c названием фильма

-Скриншоты:
-

Еще

-

Внимание! Раздача ведётся путём добавления новых серий!

Раздача ведётся путём добавления новых серий; при каждом добавлении создаётся новый торрент.
Чтобы начать докачку новой серии, пользователям необходимо сделать следующее:
1. остановить скачивание,
2. удалить старый торрент у себя из клиента (старые серии удалять не надо),
3. скачать новый торрент и запустить его у себя в клиенте вместо старого, при этом указать клиенту путь в старую папку, куда и должно происходить скачивание новых серий.
Ваш клиент при этом должен произвести хеширование (проверку) старой папки (если не производит сам - помогите ему сделать это), и будет докачивать только те серии которых у вас ещё нет. Старые серии при этом не удаляются, а продолжают раздаваться!
Eсли вы уже удалили старые серии, то предотвратить повторную закачку старых серий можно, отжав галочку в соответствующих местах при запуске нового торрента. По возможности, желательно не удалять старые серии как можно дольше, чтобы релизёр не столько продолжал раздавать старые серии, а смог сконцентрироваться на новых.
Совет для тех, кто не хочет ждать перехеширования:
Создайте ещё одну папку рядом с папкой сериала (рядом, а не в ней!!!). Каждую новую серию после удачной загрузки копируйте в новую папку так чтобы ваша основная папка всегда была пуста. Когда ваш новый торрент предложит вам закачать все файлы, выберете только последнюю. Для сидирования же укажите адрес новой папки.
Как закачать отдельный файл из торрента или докачать ранее пропущенные файлы торрента!
-

Как закачать отдельный файл

1. Открыть торрент
2. Снять галки с тех файлов торрента, которые мы не хотим закачивать. Оставляем только на нужных нам файлах (файле).
3. Нажать О.К.
В клиенте utorrent
Инструкция
1) Открыть торрент

2) Снять галки с тех файлов торрента, которые мы не хотим закачивать:
* либо вручную, снимая с каждого файла галку( скрин №1)
* либо, нажав кнопку "Снять метки (Select None)", сняв сразу со всех файлов(скрин №2)
№1

№2

Оставляем только на нужных нам файлах (файле).

3)Нажать О.К
Добавлена четвертая серия первого сезона
Яндекс.Метрика
Рейтинг@Mail.ru