Репортаж: Апокалипсис / [REC] 4: Apocalipsis (2014) HDRip [H.264] [VO]

 

Создавать темы 30-Дек-2014 08:03

Репортаж: Апокалипсис / [REC] 4: Apocalipsis (2014) HDRip- Год выпуска: 2014
Производство: Испания, Filmax
Жанр: Ужасы-Режиссер: Жауме Балагуэро
Продюсер: Хулио Фернандес, Валентина Чидичино, Карлос Фернандес
Актеры: Мануэла Веласко, Хавьер Ботет, Пако Мансанедо, Мария Альфонса Россо, Исмаэль Фричи, Криспуло Кабесас, Мариано Венансио, Эмилио Буале, Эктор Коломе, Марк Шардан
Описание фильма:
Анхела приходит в себя на корабле посреди океана. После вспышки эпидемии неизвестного вируса, превращающего людей в зомби, ученые решили изолировать инфицированных, но не заболевших людей, чтобы исследовать природу заразы. На специально оборудованном бывшем нефтяном танкере есть все необходимое оборудование для проведения лабораторных экспериментов. Но, ни ученые, ни команда даже не догадываются, что их ждет. Ведь инфицированные несут в себе гибель для всего человечества.-Перевод: Одноголосый закадровый, любительский
Озвучка / Автор перевода: Zamez
Субтитры: Отсутствуют-
Дата мировой премьеры: 9 сентября 2014
Дата российской премьеры: 11 декабря 2014
Дата выхода DVD релиза: 20 января 2015, «CD Land»-Продолжительность: 01:34:59
Качество видео: HDRip
Видео: AVC, 1024x426 (2.40:1), 24.000 fps, 1 749 Kbps (0.167 bit/pixel)
Аудио: AC-3, 48.0 KHz, 6 ch, 448 Kbps, CBR

Mediainfo:

Формат                                   : Matroska
Версия формата                           : Version 2
Размер файла                             : 1,46 Гбайт
Продолжительность                        : 1 ч. 34 м.
Общий поток                              : 2198 Кбит/сек
Дата кодирования                         : UTC 2014-12-30 03:53:28
Программа кодирования                    : mkvmerge v5.3.0 ('I could have danced') built on Feb  9 2012 10:38:07
Библиотека кодирования                   : libebml v1.2.3 + libmatroska v1.3.0
Attachment                               : Yes
Видео
Идентификатор                            : 1
Формат                                   : AVC
Формат/Информация                        : Advanced Video Codec
Профиль формата                          : [email protected]
Параметр CABAC формата                   : Да
Параметр ReFrames формата                : 6 кадров
Идентификатор кодека                     : V_MPEG4/ISO/AVC
Продолжительность                        : 1 ч. 34 м.
Битрейт                                  : 1749 Кбит/сек
Ширина                                   : 1024 пикселя
Высота                                   : 426 пикселей
Соотношение сторон                       : 2,40:1
Режим частоты кадров                     : Постоянный
Частота кадров                           : 24,000 кадра/сек
Цветовое пространство                    : YUV
Субдискретизация насыщенности            : 4:2:0
Битовая глубина                          : 8 бит
Тип развёртки                            : Прогрессивная
Бит/(Пиксели*Кадры)                      : 0.167
Размер потока                            : 1,13 Гбайт (78%)
Библиотека кодирования                   : x264 core 142 r2431 ac76440
Настройки программы                      : cabac=1 / ref=6 / deblock=1:-1:-1 / analyse=0x3:0x133 / me=umh / subme=10 / psy=1 / psy_rd=1.00:0.00 / mixed_ref=1 / me_range=32 / chroma_me=1 / trellis=2 / 8x8dct=1 / cqm=0 / deadzone=21,11 / fast_pskip=1 / chroma_qp_offset=-2 / threads=12 / lookahead_threads=1 / sliced_threads=0 / nr=0 / decimate=1 / interlaced=0 / bluray_compat=0 / constrained_intra=0 / bframes=6 / b_pyramid=2 / b_adapt=2 / b_bias=0 / direct=3 / weightb=1 / open_gop=0 / weightp=2 / keyint=240 / keyint_min=24 / scenecut=40 / intra_refresh=0 / rc=2pass / mbtree=0 / bitrate=1749 / ratetol=1.0 / qcomp=0.60 / qpmin=0 / qpmax=69 / qpstep=4 / cplxblur=20.0 / qblur=0.5 / ip_ratio=1.40 / pb_ratio=1.30 / aq=1:1.00
Язык                                     : English
Default                                  : Да
Forced                                   : Нет
Аудио
Идентификатор                            : 2
Формат                                   : AC-3
Формат/Информация                        : Audio Coding 3
Расширение режима                        : CM (complete main)
Параметр Endianness формата              : Big
Идентификатор кодека                     : A_AC3
Продолжительность                        : 1 ч. 34 м.
Вид битрейта                             : Постоянный
Битрейт                                  : 448 Кбит/сек
Каналы                                   : 6 каналов
Расположение каналов                     : Front: L C R, Side: L R, LFE
Частота                                  : 48,0 КГц
Битовая глубина                          : 16 бит
Метод сжатия                             : С потерями
Размер потока                            : 304 Мбайт (20%)
Default                                  : Да
Forced                                   : Нет
Скриншоты:
-Время раздачи: до 5 первых сидов
Яндекс.Метрика
Рейтинг@Mail.ru