Молодая Кровь / Son of a Gun (Джулиус Эйвери / Julius Avery) [2014 г., Боевик, Драма, Криминал, WEB-DLRip] MVO

 

Создавать темы 29-Дек-2014 16:20

-Молодая Кровь / Son of a Gun-- Производство: Австралия / Altitude Film Entertainment, Bridle Path Films, Media House Capital
Год выпуска: 2014 г.
Жанр: Боевик, Драма, Криминал
Продолжительность: 01:48:45
Мировая премьера: 16 октября 2014
Перевод: Профессиональный (многоголосый, закадровый) [Студия Пиратского Дубляжа]
Режиссер: Джулиус Эйвери / Julius Avery-В ролях: Брентон Туэйтс, Юэн МакГрегор, Алисия Викандер, Мэтью Нэйбл, Дэймон Херриман, Нэш Эдгертон, Яцек Коман, Джесси МакДжинн, Эдди Бару, Том Бадж-Описание: Джей и красавица Наташа любят друг друга. И всё бы ничего, если бы молодая пара не поучаствовала в ограблении века и не похитила груду золота. Но главная проблема в том, что предводитель их банды — легендарный грабитель Брэндан Линч, не собирается ни с кем делиться добычей. И вовсе не хочет никого отпускать «жить счастливо». Поэтому Джей с Наташей могут либо «умереть в один день», либо придумать собственный хитроумный план со счастливым концом.-
Качество видео: WEB-DLRip
Контейнер: AVI
Видео кодек: XviD
Аудио кодек: AC3
Видео: 720x304 (2.37:1), 24.000 fps, XviD build 50 ~1524 kbps avg, 0.29 bit/pixel
Аудио: 48 kHz, AC3 Dolby Digital, 3/2 (L,C,R,l,r) + LFE ch, ~384 kbps
Cубтитры: отсутствуют

Media Info

Общее
Полное имя : E:\Фильмы\Son.of.a.Gun.2014.P.WEB-DLRip.avi
Формат : AVI
Формат/Информация : Audio Video Interleave
Размер файла : 1,46 Гбайт
Продолжительность : 1 ч. 48 м.
Общий поток : 1918 Кбит/сек
Программа кодирования : VirtualDubModRus 1.5.10.2 (build 2542/release)
Видео
Идентификатор : 0
Формат : MPEG-4 Visual
Профиль формата : Advanced [email protected]
Параметр BVOP формата : 3
Параметр QPel формата : Нет
Параметр GMC формата : Без точки перехода
Параметр матрицы формата : Выборочная
Идентификатор кодека : XVID
Идентификатор кодека/Подсказка : XviD
Продолжительность : 1 ч. 48 м.
Битрейт : 1524 Кбит/сек
Ширина : 720 пикселей
Высота : 304 пикселя
Соотношение сторон : 2,35:1
Частота кадров : 24,000 кадра/сек
Цветовое пространство : YUV
Субдискретизация насыщенности : 4:2:0
Битовая глубина : 8 бит
Тип развёртки : Прогрессивная
Метод сжатия : С потерями
Бит/(Пиксели*Кадры) : 0.290
Размер потока : 1,16 Гбайт (79%)
Библиотека кодирования : XviD 1.2.1 (UTC 2008-12-04)
Аудио
Идентификатор : 1
Формат : AC-3
Формат/Информация : Audio Coding 3
Расширение режима : CM (complete main)
Параметр Endianness формата : Big
Идентификатор кодека : 2000
Продолжительность : 1 ч. 48 м.
Вид битрейта : Постоянный
Битрейт : 384 Кбит/сек
Каналы : 6 каналов
Расположение каналов : Front: L C R, Side: L R, LFE
Частота : 48,0 КГц
Битовая глубина : 16 бит
Метод сжатия : С потерями
Размер потока : 299 Мбайт (20%)
Выравнивание : Разделение по промежуткам
Продолжительность промежутка : 42 мс. (1,00 видеокадр)
Время предзагрузки промежутка : 500 мс.
Скриншоты
Яндекс.Метрика
Рейтинг@Mail.ru