[ Сегодня на трекере фрилич! Идет свободное скачивание без начисления Download ]

Мотель / The Bag Man (Дэвид Гровик / David Grovic) [2014 г., триллер, криминал, BDRip, 720p] MVO (Лицензия) + Original (Eng) + Sub (Rus, Eng)

 

Создавать темы 28-Дек-2014 17:19

-Мотель / The Bag Man- Производство: США, Багамы
Год выпуска: 2014 г.
Жанр: триллер, криминал
Продолжительность: 01:48:39
Мировая премьера: 28 февраля 2014
Дата выхода DVD: 11 декабря 2014, «Вольга»
Перевод: Профессиональный (многоголосый, закадровый) [Лицензия]
Оригинальный аудиопоток: английский-Режиссер: Дэвид Гровик / David Grovic
В ролях: Роберт Де Ниро, Джон Кьюсак, Ребекка Да Коста, Криспин Гловер, Доминик Пёрселл, Стикки Фингаз, Мартин Клебба, Дэвид Шамбрис, Чезз Менендес, Йен Маклафлин-Описание: Наемный убийца Джек Стаффорд получает несложное задание: приехать в заштатный мотель в 300 милях от Питтсбурга, получить сумку с таинственным содержимым и оставаться в номере, пока за грузом не приедут. Условие одно: ни при каких обстоятельствах не заглядывать внутрь сумки. Но поручение оказывается простым лишь на первый взгляд. Вскоре киллер понимает, что за доверенным ему предметом охотятся коррумпированные агенты ФБР, продажные полицейские, провинциальные гангстеры и кровожадный карлик-цыган из Сербии. И каждый хочет всадить в Джека пулю. Число жертв растет на глазах, и дожить до рассвета смогут далеко не все постояльцы мотеля.- -Качество видео: BDRip
Контейнер: MKV
Стандарт разрешения: 720p
Видео кодек: MPEG-4 AVC
Аудио кодек: AC3, DTS
Видео: 1280x534 (2.40:1), 5 500 Kbps, 23.976 fps, 0.336 bit/pix
Аудио: AC3, 448 Kbps, 6 ch, 48.0 KHz - Rus
Аудио #2: DTS, 1 509 Kbps, 6 ch, 48.0 KHz - Eng
Cубтитры: Русские, английские

Media Info

General
Unique ID : 181372996721633399397062942286075261745 (0x88732B26060AFEE094A011030D51F331)
Complete name : D:\Motel.2014.P.BDRip.720p.mkv
Format : Matroska
Format version : Version 4 / Version 2
File size : 5.66 GiB
Duration : 1h 48mn
Overall bit rate : 7 457 Kbps
Encoded date : UTC 2014-12-22 09:09:43
Writing application : mkvmerge v6.8.0 ('Theme for Great Cities') 64bit built on Mar 2 2014 21:34:26
Writing library : libebml v1.3.0 + libmatroska v1.4.1
Video
ID : 1
Format : AVC
Format/Info : Advanced Video Codec
Format profile : [email protected]
Format settings, CABAC : Yes
Format settings, ReFrames : 12 frames
Codec ID : V_MPEG4/ISO/AVC
Duration : 1h 48mn
Bit rate : 5 500 Kbps
Width : 1 280 pixels
Height : 534 pixels
Display aspect ratio : 2.40:1
Frame rate mode : Constant
Frame rate : 23.976 fps
Color space : YUV
Chroma subsampling : 4:2:0
Bit depth : 8 bits
Scan type : Progressive
Bits/(Pixel*Frame) : 0.336
Stream size : 4.06 GiB (72%)
Writing library : x264 core 133 r2334 a3ac64b
Encoding settings : cabac=1 / ref=12 / deblock=1:-3:-3 / analyse=0x3:0x113 / me=tesa / subme=11 / psy=1 / psy_rd=1.10:0.00 / mixed_ref=1 / me_range=32 / chroma_me=1 / trellis=2 / 8x8dct=1 / cqm=0 / deadzone=21,11 / fast_pskip=0 / chroma_qp_offset=-4 / threads=12 / lookahead_threads=2 / sliced_threads=0 / nr=0 / decimate=0 / interlaced=0 / bluray_compat=0 / constrained_intra=0 / bframes=8 / b_pyramid=2 / b_adapt=2 / b_bias=0 / direct=3 / weightb=1 / open_gop=0 / weightp=2 / keyint=250 / keyint_min=23 / scenecut=40 / intra_refresh=0 / rc=2pass / mbtree=0 / bitrate=5500 / ratetol=1.0 / qcomp=0.65 / qpmin=0 / qpmax=69 / qpstep=4 / cplxblur=20.0 / qblur=0.5 / ip_ratio=1.20 / pb_ratio=1.30 / aq=1:0.85
Language : English
Default : Yes
Forced : No
Audio #1
ID : 2
Format : AC-3
Format/Info : Audio Coding 3
Mode extension : CM (complete main)
Format settings, Endianness : Big
Codec ID : A_AC3
Duration : 1h 48mn
Bit rate mode : Constant
Bit rate : 448 Kbps
Channel(s) : 6 channels
Channel positions : Front: L C R, Side: L R, LFE
Sampling rate : 48.0 KHz
Bit depth : 16 bits
Compression mode : Lossy
Stream size : 348 MiB (6%)
Language : Russian
Default : Yes
Forced : Yes
Audio #2
ID : 3
Format : DTS
Format/Info : Digital Theater Systems
Mode : 16
Format settings, Endianness : Big
Codec ID : A_DTS
Duration : 1h 48mn
Bit rate mode : Constant
Bit rate : 1 509 Kbps
Channel(s) : 6 channels
Channel positions : Front: L C R, Side: L R, LFE
Sampling rate : 48.0 KHz
Bit depth : 24 bits
Compression mode : Lossy
Stream size : 1.15 GiB (20%)
Language : English
Default : No
Forced : No
Text #1
ID : 4
Format : UTF-8
Codec ID : S_TEXT/UTF8
Codec ID/Info : UTF-8 Plain Text
Title : Janetta
Language : Russian
Default : No
Forced : No
Text #2
ID : 5
Format : UTF-8
Codec ID : S_TEXT/UTF8
Codec ID/Info : UTF-8 Plain Text
Language : English
Default : No
Forced : No
Menu
00:00:00.000 : en:00:00:00.000
00:05:23.906 : en:00:05:23.906
00:09:49.589 : en:00:09:49.589
00:16:19.561 : en:00:16:19.561
00:19:49.188 : en:00:19:49.188
00:25:32.239 : en:00:25:32.239
00:30:45.718 : en:00:30:45.718
00:35:16.405 : en:00:35:16.405
00:41:58.724 : en:00:41:58.724
00:45:59.840 : en:00:45:59.840
00:49:18.372 : en:00:49:18.372
00:55:32.829 : en:00:55:32.829
00:59:39.993 : en:00:59:39.993
01:07:38.387 : en:01:07:38.387
01:12:25.674 : en:01:12:25.674
01:16:09.398 : en:01:16:09.398
01:24:45.580 : en:01:24:45.580
01:29:11.137 : en:01:29:11.137
01:36:35.080 : en:01:36:35.080
01:42:46.952 : en:01:42:46.952

Скриншоты

Яндекс.Метрика
Рейтинг@Mail.ru