[ Сегодня на трекере фрилич! Идет свободное скачивание без начисления Download ]

Новая подружка / Une nouvelle amie (Франсуа Озон / François Ozon) [2014 г., драма, WEB-DLRip] Dub (Чистый звук)

 

Создавать темы 28-Дек-2014 04:32

-Новая подружка / Une nouvelle amie- Производство: Франция
Год выпуска: 2014 г.
Жанр: драма
Продолжительность: 01:48:01
Мировая премьера: 6 сентября 2014
Российская премьера: 13 ноября 2014, «A-One Films», «Наше Кино»
Перевод: Профессиональный (полное дублирование) [Чистый звук]-Режиссер: Франсуа Озон / François Ozon
В ролях: Ромен Дюрис, Анаис Демустье, Рафаэль Персонас, Изильд Ле Беско, Аврора Клеман, Жан-Клод Боль-Редда, Брюно Перар, Клодин Чатель, Анита Жилье, Алекс Фонджа-Описание: Клэр переживает смерть лучшей подруги — они были неразлучны с детства, делили радости и переживания отрочества, одновременно вышли замуж. Убитый горем вдовец предлагает Клэр остроумный способ выбраться из депрессии…- -Качество видео: WEB-DLRip
Контейнер: AVI
Видео кодек: XviD
Аудио кодек: AC3
Видео: 720x384 (1.88:1), 25 fps, XviD build 50 ~1733 kbps avg, 0.25 bit/pixel
Аудио: 48 kHz, AC3 Dolby Digital, 2/0 (L,R) ch, ~192 kbps
Cубтитры: отсутствуют

Media Info

General
Complete name : D:\N0v4ya.P0druzhka.2014.D.WEB-DLRip.avi
Format : AVI
Format/Info : Audio Video Interleave
File size : 1.46 GiB
Duration : 1h 48mn
Overall bit rate : 1 936 Kbps
Writing application : VirtualDubMod 1.5.10.2 (build 2540/release)
Writing library : VirtualDubMod build 2540/release
Video
ID : 0
Format : MPEG-4 Visual
Format profile : Advanced [email protected]
Format settings, BVOP : 2
Format settings, QPel : No
Format settings, GMC : No warppoints
Format settings, Matrix : Default (MPEG)
Codec ID : XVID
Codec ID/Hint : XviD
Duration : 1h 48mn
Bit rate : 1 734 Kbps
Width : 720 pixels
Height : 384 pixels
Display aspect ratio : 1.85:1
Frame rate : 25.000 fps
Color space : YUV
Chroma subsampling : 4:2:0
Bit depth : 8 bits
Scan type : Progressive
Compression mode : Lossy
Bits/(Pixel*Frame) : 0.251
Stream size : 1.31 GiB (90%)
Writing library : XviD 1.2.1 (UTC 2008-12-04)
Audio
ID : 1
Format : AC-3
Format/Info : Audio Coding 3
Mode extension : CM (complete main)
Format settings, Endianness : Big
Codec ID : 2000
Duration : 1h 48mn
Bit rate mode : Constant
Bit rate : 192 Kbps
Channel(s) : 2 channels
Channel positions : Front: L R
Sampling rate : 48.0 KHz
Bit depth : 16 bits
Compression mode : Lossy
Stream size : 148 MiB (10%)
Alignment : Split accross interleaves
Interleave, duration : 40 ms (1.00 video frame)
Interleave, preload duratio : 500 ms

Скриншоты

Яндекс.Метрика
Рейтинг@Mail.ru