[ Сегодня на трекере фрилич! Идет свободное скачивание без начисления Download ]

Хрустальные черепа / Crystal Skulls (Тодор Чапканов/ Todor Chapkanov) [2014 г., Фантастика, приключения, HDTVRip] MVO

 

Создавать темы 27-Дек-2014 07:47

-Хрустальные черепа / Crystal Skulls-- Производство: США
Год выпуска: 2014 г.
Жанр: Фантастика, приключения
Продолжительность: 01:23:45
Мировая премьера: 4 сентября 2014,
Российская премьера: 12 августа 2014
Перевод: Профессиональный (многоголосый, закадровый)
Режиссер: Тодор Чапканов/ Todor Chapkanov-В ролях: Рэймонд Дж. Бэрри, Марко Берриос, Дэвид Кейд, Сизар Делеон, Камар де лос Рейес, Лила Дюпри, Джина Холден, Кристофер Джадж, Кевин Каша, Питер Катона-Описание: Когда приближение черной дыры грозит Земле гибелью, единственная надежда на спасение может находиться среди руин древнего храма майя.-
Качество видео: HDTVRip
Контейнер: AVI
Видео кодек: XviD
Аудио кодек: AC3
Видео: 720x400 (1.80:1), 25 fps, XviD build 50 ~1942 kbps avg, 0.27 bit/pixel
Аудио: 48 kHz, AC3 Dolby Digital, 2/0 (L,R) ch, ~384 kbps
Cубтитры: отсутствуют

Media Info

Общее
Полное имя : E:\Фильмы\Hrystaljnye.4erepa.2014.P.HDTVRip.avi
Формат : AVI
Формат/Информация : Audio Video Interleave
Размер файла : 1,37 Гбайт
Продолжительность : 1 ч. 23 м.
Общий поток : 2337 Кбит/сек
Программа кодирования : VirtualDubMod 1.5.10.2 (build 2540/release)
Библиотека кодирования : VirtualDubMod build 2540/release
Видео
Идентификатор : 0
Формат : MPEG-4 Visual
Профиль формата : Advanced [email protected]
Параметр BVOP формата : 2
Параметр QPel формата : Нет
Параметр GMC формата : Без точки перехода
Параметр матрицы формата : Default (MPEG)
Идентификатор кодека : XVID
Идентификатор кодека/Подсказка : XviD
Продолжительность : 1 ч. 23 м.
Битрейт : 1943 Кбит/сек
Ширина : 720 пикселей
Высота : 400 пикселей
Соотношение сторон : 16:9
Частота кадров : 25,000 кадров/сек
Цветовое пространство : YUV
Субдискретизация насыщенности : 4:2:0
Битовая глубина : 8 бит
Тип развёртки : Прогрессивная
Метод сжатия : С потерями
Бит/(Пиксели*Кадры) : 0.270
Размер потока : 1,14 Гбайт (83%)
Библиотека кодирования : XviD 1.2.1 (UTC 2008-12-04)
Аудио
Идентификатор : 1
Формат : AC-3
Формат/Информация : Audio Coding 3
Расширение режима : CM (complete main)
Параметр Endianness формата : Big
Идентификатор кодека : 2000
Продолжительность : 1 ч. 23 м.
Вид битрейта : Постоянный
Битрейт : 384 Кбит/сек
Каналы : 2 канала
Расположение каналов : Front: L R
Частота : 48,0 КГц
Битовая глубина : 16 бит
Метод сжатия : С потерями
Размер потока : 230 Мбайт (16%)
Выравнивание : Разделение по промежуткам
Продолжительность промежутка : 40 мс. (1,00 видеокадр)
Время предзагрузки промежутка : 500 мс.
Скриншоты
Яндекс.Метрика
Рейтинг@Mail.ru