Вознесение / Ascension / Сезон: 1 / Полный / Серии: 6 из 6 (Майрзи Алмас / Mairzee Almas) [2014 г., фантастика, WEB-DL 720р] MVO (BaibaKo) + Original (Eng)

 

Создавать темы 27-Дек-2014 07:37

Вознесение / Ascension- Русское название: Вознесение
Оригинальное название: Ascension
Страна: США, Канада
Год выпуска: 2014
Жанр: фантастика, ...-Релиз:
Перевод: Многоголосый закадровый, профессиональный
Оригинальный аудиопоток: английский-Автор перевода: vipere
Озвучка: Лира Грим, Татьяна Оболевич, Владимир Курдов, Сергей Корчак, Александр Фурман и Валерий Смекалов
Монтаж: Павел Дежин
Обложка: Антон Максимов-Режиссер: Майрзи Алмас / Mairzee Almas, Ник Копус / Nick Copus, Роберт Либерман / Robert Lieberman
В главных ролях: Ал Сапиенца, Брэд Картер, Триша Хелфер, Тиффани Лонсдэйл, Райан Роббинс, Джессика Сайпос, Мишель Майлетт, Элли О’Брайен, Аманда Томсон, Алийа О’Брайен, Рэйчел Кроуфорд-Описание фильма:
История о тайной космической миссии правительства США, начатой в 1963 году. Сотни мужчин, женщин и детей отправились в столетнее путешествие на корабле «Вознесение» с целью заселить новый мир. Пассажиры корабля начинают задаваться истинной целью миссии после таинственного убийства молодой девушки, произошедшего спустя 50 лет после начала их путешествия.-Дата мировой премьеры: 15 декабря 2014-Сезон: 1
Серии: 6 из 6 серий
Продолжительность: ~ 00:34:00 серия-Качество видео: WEB-DL 720р
Формат: MKV
Видеокодек: AVC ([email protected])
Аудиокодек: AC-3
Видео: AVC at 4104 Кбит/сек: 1280 x 716 (1.788) at 23.976 fps
Аудио Rus: AC-3 at 384 Кбит/сек: 6 каналов, 48,0 КГц |BaibaKo|
Аудио Eng: AC-3 at 384 Кбит/сек: 6 каналов, 48,0 КГц |Original|
Cубтитры: отсутствуют
- -

MediaInfo:

Общее
Уникальный идентификатор : 214477806435656030368812377259672249677 (0xA15AEC488DEBA80B92C8D53340DEA54D)
Полное имя : E:\_Сериалы\_Сериалы\Вознесение\Ascension s01.BaibaKo\Ascension.s01e01.HD720p.WEB-DL.Rus.Eng.BaibaKo.tv.mkv
Формат : Matroska
Версия формата : Version 4 / Version 2
Размер файла : 1,21 Гбайт
Продолжительность : 34 м.
Общий поток : 4956 Кбит/сек
Дата кодирования : UTC 2014-12-17 00:32:46
Программа кодирования : mkvmerge v7.4.0 ('Circles') 64bit built on Dec 12 2014 12:19:56
Библиотека кодирования : libebml v1.3.0 + libmatroska v1.4.1
DURATION : 00:34:51.136000000
NUMBER_OF_FRAMES : 65348
NUMBER_OF_BYTES : 100374528
_STATISTICS_WRITING_APP : mkvmerge v7.4.0 ('Circles') 64bit built on Dec 12 2014 12:19:56
_STATISTICS_WRITING_DATE_UTC : 2014-12-17 00:32:46
_STATISTICS_TAGS : BPS DURATION NUMBER_OF_FRAMES NUMBER_OF_BYTES
Видео
Идентификатор : 1
Формат : AVC
Формат/Информация : Advanced Video Codec
Профиль формата : [email protected]
Параметр CABAC формата : Нет
Параметр ReFrames формата : 2 кадра
Идентификатор кодека : V_MPEG4/ISO/AVC
Продолжительность : 34 м.
Битрейт : 4104 Кбит/сек
Ширина : 1280 пикселей
Высота : 716 пикселей
Соотношение сторон : 16:9
Режим частоты кадров : Постоянный
Частота кадров : 23,976 кадра/сек
Цветовое пространство : YUV
Субдискретизация насыщенности : 4:2:0
Битовая глубина : 8 бит
Тип развёртки : Прогрессивная
Бит/(Пиксели*Кадры) : 0.187
Размер потока : 1020 Мбайт (83%)
Библиотека кодирования : x264 core 130 r2273 b3065e6
Настройки программы : cabac=1 / ref=5 / deblock=1:-1:-1 / analyse=0x3:0x113 / me=umh / subme=8 / psy=1 / psy_rd=1.00:0.15 / mixed_ref=1 / me_range=16 / chroma_me=1 / trellis=1 / 8x8dct=1 / cqm=0 / deadzone=21,11 / fast_pskip=1 / chroma_qp_offset=-3 / threads=12 / lookahead_threads=2 / sliced_threads=0 / nr=0 / decimate=1 / interlaced=0 / bluray_compat=0 / constrained_intra=0 / bframes=3 / b_pyramid=2 / b_adapt=2 / b_bias=0 / direct=3 / weightb=1 / open_gop=0 / weightp=2 / keyint=240 / keyint_min=24 / scenecut=40 / intra_refresh=0 / rc_lookahead=50 / rc=2pass / mbtree=1 / bitrate=4104 / ratetol=1.0 / qcomp=0.60 / qpmin=0 / qpmax=69 / qpstep=4 / cplxblur=20.0 / qblur=0.5 / vbv_maxrate=17500 / vbv_bufsize=17500 / nal_hrd=none / ip_ratio=1.40 / aq=1:1.00
Язык : English
Default : Нет
Forced : Нет
Основные цвета : BT.709
Характеристики трансфера : BT.709
Коэффициенты матрицы : BT.709
Аудио #1
Идентификатор : 2
Формат : AC-3
Формат/Информация : Audio Coding 3
Расширение режима : CM (complete main)
Параметр Endianness формата : Big
Идентификатор кодека : A_AC3
Продолжительность : 34 м.
Вид битрейта : Постоянный
Битрейт : 384 Кбит/сек
Каналы : 6 каналов
Расположение каналов : Front: L C R, Side: L R, LFE
Частота : 48,0 КГц
Битовая глубина : 16 бит
Метод сжатия : С потерями
Размер потока : 95,7 Мбайт (8%)
Язык : Russian
Default : Да
Forced : Нет
Аудио #2
Идентификатор : 3
Формат : AC-3
Формат/Информация : Audio Coding 3
Расширение режима : CM (complete main)
Параметр Endianness формата : Big
Идентификатор кодека : A_AC3
Продолжительность : 34 м.
Вид битрейта : Постоянный
Битрейт : 384 Кбит/сек
Каналы : 6 каналов
Расположение каналов : Front: L C R, Side: L R, LFE
Частота : 48,0 КГц
Битовая глубина : 16 бит
Метод сжатия : С потерями
Размер потока : 95,7 Мбайт (8%)
Язык : English
Default : Нет
Forced : Нет
-

Скриншот c названием фильма

-Скриншоты:
-

Еще

-

Как закачать отдельный файл

1. Открыть торрент
2. Снять галки с тех файлов торрента, которые мы не хотим закачивать. Оставляем только на нужных нам файлах (файле).
3. Нажать О.К.
В клиенте utorrent
Инструкция
1) Открыть торрент

2) Снять галки с тех файлов торрента, которые мы не хотим закачивать:
* либо вручную, снимая с каждого файла галку( скрин №1)
* либо, нажав кнопку "Снять метки (Select None)", сняв сразу со всех файлов(скрин №2)
№1

№2

Оставляем только на нужных нам файлах (файле).

3)Нажать О.К
-Добавлена шестая, заключительная, серия первого сезона
Яндекс.Метрика
Рейтинг@Mail.ru