[ Сегодня на трекере фрилич! Идет свободное скачивание без начисления Download ]

Мажор / Сезон: 1 / Серии: 1-12 из 12 (Константин Статский) [2014 г., драма, криминал, HDTVRip]

 

Создавать темы 25-Дек-2014 06:12

-Мажор-- Производство: Россия
Жанр: драма, криминал
Год выпуска: 2014 г.
Продолжительность: ~ 00:52 мин. (серия)
Российская премьера: 15 декабря 2014
Режиссер: Константин Статский-В ролях: Павел Прилучный, Заза Чантурия, Дмитрий Гаврилов, Анна Андрусенко, Марина Дьяконенко, Алла Мартынюк, Саак Дурян, Никита Скоморохов, Анастасия Гиренкова, Вениамин Прибура-Описание: Таких, как наш главный герой Игорь Соколовский, называют мажорами. То есть, детей высокопоставленных, богатых родителей. Наш герой имеет юридическое образование, но ни одного дня не проработал. Безответственный прожигатель жизни. В один из загулов ночью он вступился за приятеля, подрался с полицейскими, выбил табельное оружие у офицера… В итоге отец лишает героя всего и отправляет работать в отделение полиции — то самое, в котором служат ночные полицейские. Его, мажора, там не ждут. Его презирают. Но именно там он начнет становиться мужчиной, встретит свою любовь и найдет убийцу мамы.-
Качество видео: HDTVRip
Контейнер: AVI
Видео кодек: XviD
Аудио кодек: MP3
Видео: 720х400 , 1602 kbps , 25,000 fps , 0.222 бит/пиксел
Аудио: 128 kbps , 2 ch , 48,0 kHz
Cубтитры: отсутствуют

Media Info

Формат : AVI
Формат/Информация : Audio Video Interleave
Размер файла : 650 Мбайт
Продолжительность : 52 м.
Общий поток : 1739 Кбит/сек
Программа кодирования : VirtualDubMod 1.5.10.3 | www.virtualdub-fr.org || (build 2550/release)
Библиотека кодирования : VirtualDubMod build 2550/release
Видео
Идентификатор : 0
Формат : MPEG-4 Visual
Профиль формата : Advanced [email protected]
Параметр BVOP формата : 2
Параметр QPel формата : Нет
Параметр GMC формата : Без точки перехода
Параметр матрицы формата : Default (H.263)
Идентификатор кодека : XVID
Идентификатор кодека/Подсказка : XviD
Продолжительность : 52 м.
Битрейт : 1602 Кбит/сек
Ширина : 720 пикселей
Высота : 400 пикселей
Соотношение сторон : 16:9
Частота кадров : 25,000 кадров/сек
Цветовое пространство : YUV
Субдискретизация насыщенности : 4:2:0
Битовая глубина : 8 бит
Тип развёртки : Прогрессивная
Метод сжатия : С потерями
Бит/(Пиксели*Кадры) : 0.222
Размер потока : 599 Мбайт (92%)
Библиотека кодирования : XviD 1.2.1 (UTC 2008-12-04)
Аудио
Идентификатор : 1
Формат : MPEG Audio
Версия формата : Version 1
Профиль формата : Layer 3
Режим : Joint stereo
Расширение режима : MS Stereo
Идентификатор кодека : 55
Идентификатор кодека/Подсказка : MP3
Продолжительность : 52 м.
Вид битрейта : Постоянный
Битрейт : 128 Кбит/сек
Каналы : 2 канала
Частота : 48,0 КГц
Метод сжатия : С потерями
Размер потока : 47,9 Мбайт (7%)
Выравнивание : Соединение по промежуткам
Продолжительность промежутка : 40 мс. (1,00 видеокадр)
Время предзагрузки промежутка : 504 мс.
Библиотека кодирования : LAME3.99r
Настройки программы : -m j -V 4 -q 9 -lowpass 17 -b 128

Скриншоты

Яндекс.Метрика
Рейтинг@Mail.ru