Гость / The Guest (Адам Вингард / Adam Wingard) [2014 г., боевик, триллер, детектив, BDRip, 720p] VO (Алексей Матвеев) + Original (Eng)

 

Создавать темы 23-Дек-2014 16:06

-Гость / The Guest- Производство: США
Год выпуска: 2014 г.
Жанр: боевик, триллер, детектив
Продолжительность: 01:40:24
Мировая премьера: 17 января 2014
Российская премьера: 5 февраля 2015, «Ракета Релизинг»
Перевод: Любительский (одноголосый, закадровый) [Алексей Матвеев]
Оригинальный аудиопоток: английский-Режиссер: Адам Вингард / Adam Wingard
В ролях: Дэн Стивенс, Майка Монро, Брендан Мейер, Шейла Келли, Лиленд Орсер, Лэнс Реддик, Табата Шон, Чейз Уильямсон, Джоэл Мур, Стивен Браун-Описание: В семью, потерявшую на войне своего сына и брата, приезжает незнакомец. Он представляется сослуживцем погибшего и напрашивается погостить у них несколько дней, чтобы познакомиться поближе, а заодно рассказать о своей службе. Незнакомец очень приветлив и добр к каждому из членов семьи и при каждом удобном случае старается чем-то помочь. Однако вскоре эта помощь становится все более и более радикальной…- -Качество видео: BDRip
Контейнер: MKV
Стандарт разрешения: 720p
Видео кодек: H.264
Аудио кодек: AC3 / DTS
Видео: 1280x536 (2.40:1), 4 717 Kbps, 23.976 fps, 0.287 bit/pix
Аудио: AC3, 448 Kbps, 6 ch, 48.0 KHz - Rus
Аудио #2: DTS, 1 509 Kbps, 6 ch, 48.0 KHz - Eng
Cубтитры: отсутствуют

Media Info

General
Unique ID : 225279305396552948604661924531550821314 (0xA97B374C85E142DC8426E91C5BA41BC2)
Complete name : D:\G0st.2014.A.BDRip.720p.mkv
Format : Matroska
Format version : Version 4 / Version 2
File size : 4.68 GiB
Duration : 1h 40mn
Overall bit rate : 6 675 Kbps
Encoded date : UTC 2014-12-21 16:20:12
Writing application : mkvmerge v7.2.0 ('On Every Street') 64bit built on Sep 13 2014 15:52:10
Writing library : libebml v1.3.0 + libmatroska v1.4.1
DURATION : 01:40:25.024000000
NUMBER_OF_FRAMES : 188282
NUMBER_OF_BYTES : 337401344
_STATISTICS_WRITING_APP : mkvmerge v7.2.0 ('On Every Street') 64bit built on Sep 13 2014 15:52:10
_STATISTICS_WRITING_DATE_UT : 2014-12-21 16:20:12
_STATISTICS_TAGS : BPS DURATION NUMBER_OF_FRAMES NUMBER_OF_BYTES
Video
ID : 1
Format : AVC
Format/Info : Advanced Video Codec
Format profile : [email protected]
Format settings, CABAC : Yes
Format settings, ReFrames : 5 frames
Codec ID : V_MPEG4/ISO/AVC
Duration : 1h 40mn
Bit rate : 4 717 Kbps
Width : 1 280 pixels
Height : 536 pixels
Display aspect ratio : 2.40:1
Frame rate mode : Constant
Frame rate : 23.976 fps
Color space : YUV
Chroma subsampling : 4:2:0
Bit depth : 8 bits
Scan type : Progressive
Bits/(Pixel*Frame) : 0.287
Stream size : 3.22 GiB (69%)
Writing library : x264 core 142 r2479 dd79a61
Encoding settings : cabac=1 / ref=5 / deblock=1:0:0 / analyse=0x3:0x133 / me=umh / subme=7 / psy=1 / psy_rd=1.00:0.00 / mixed_ref=1 / me_range=16 / chroma_me=1 / trellis=1 / 8x8dct=1 / cqm=0 / deadzone=21,11 / fast_pskip=0 / chroma_qp_offset=-2 / threads=18 / lookahead_threads=3 / sliced_threads=0 / nr=0 / decimate=1 / interlaced=0 / bluray_compat=0 / constrained_intra=0 / bframes=3 / b_pyramid=2 / b_adapt=1 / b_bias=0 / direct=1 / weightb=1 / open_gop=0 / weightp=2 / keyint=250 / keyint_min=23 / scenecut=40 / intra_refresh=0 / rc_lookahead=40 / rc=2pass / mbtree=1 / bitrate=4717 / ratetol=1.0 / qcomp=0.60 / qpmin=0 / qpmax=69 / qpstep=4 / cplxblur=20.0 / qblur=0.5 / ip_ratio=1.40 / aq=1:1.00
Language : English
Default : Yes
Forced : No
DURATION : 01:40:24.987000000
NUMBER_OF_FRAMES : 144455
NUMBER_OF_BYTES : 3551594856
_STATISTICS_WRITING_APP : mkvmerge v7.2.0 ('On Every Street') 64bit built on Sep 13 2014 15:52:10
_STATISTICS_WRITING_DATE_UT : 2014-12-21 16:20:12
_STATISTICS_TAGS : BPS DURATION NUMBER_OF_FRAMES NUMBER_OF_BYTES
Audio #1
ID : 2
Format : AC-3
Format/Info : Audio Coding 3
Mode extension : CM (complete main)
Format settings, Endianness : Big
Codec ID : A_AC3
Duration : 1h 40mn
Bit rate mode : Constant
Bit rate : 448 Kbps
Channel(s) : 6 channels
Channel positions : Front: L C R, Side: L R, LFE
Sampling rate : 48.0 KHz
Bit depth : 16 bits
Compression mode : Lossy
Stream size : 322 MiB (7%)
Language : Russian
Default : Yes
Forced : No
Audio #2
ID : 3
Format : DTS
Format/Info : Digital Theater Systems
Mode : 16
Format settings, Endianness : Big
Codec ID : A_DTS
Duration : 1h 40mn
Bit rate mode : Constant
Bit rate : 1 509 Kbps
Channel(s) : 6 channels
Channel positions : Front: L C R, Side: L R, LFE
Sampling rate : 48.0 KHz
Bit depth : 24 bits
Compression mode : Lossy
Stream size : 1.06 GiB (23%)
Language : English
Default : No
Forced : No
Menu
00:00:00.000 : en:00:00:00.000
00:05:38.129 : en:00:05:38.129
00:09:36.159 : en:00:09:36.159
00:15:39.772 : en:00:15:39.772
00:20:37.653 : en:00:20:37.653
00:26:07.357 : en:00:26:07.357
00:31:22.422 : en:00:31:22.422
00:36:32.941 : en:00:36:32.941
00:40:39.479 : en:00:40:39.479
00:46:43.259 : en:00:46:43.259
00:49:52.531 : en:00:49:52.531
00:55:04.218 : en:00:55:04.218
01:00:38.927 : en:01:00:38.927
01:04:13.349 : en:01:04:13.349
01:09:22.742 : en:01:09:22.742
01:15:38.409 : en:01:15:38.409
01:20:08.053 : en:01:20:08.053
01:25:00.679 : en:01:25:00.679
01:30:15.201 : en:01:30:15.201
01:35:42.904 : en:01:35:42.904

Скриншоты

Яндекс.Метрика
Рейтинг@Mail.ru