Американская История Ужасов: Шабаш / American Horror Story: Coven (2013) WEB-DLRip (Сезон 3 / Серии 1-6 (13)) | Кубик в Кубе

 

Создавать темы 18-Ноя-2013 19:04

-Американские ужасы / American Horror Story (2013) WEB-DLRip (Сезон 3 Серии 1-6 (13)) Кубик в Кубе- Русское название: Американская История Ужасов: Шабаш
Оригинальное название: American Horror Story: Coven
Страна: США
Год выпуска: 2013
Жанр: ужасы, фантастика, триллер, драма, детектив
Перевод: Двухголосый закадровый, профессиональный (Кубик в Кубе)-Режиссер: Брэд Фэлчак, Райан Мерфи
Актеры: Сара Полсон, Эван Питерс, Лили Рэйб, Фрэнсис Конрой, Таисса Фармига, Габури Сидибе, Кэти Бейтс, Джессика Лэнг, Пэтти Люпон, Анджела Бассетт, Эмма Робертс, Джейми Брюер, Дэнис О’Харе, Грэй Дэймон, Алекс Брекенридж, Мэр Уиннингэм, Люси Фауст, Джозеф Фишер, Сэр М., Старлет Миариаунни, Эшлинн Росс, Лесли Джордан, Джош Гамильтон
Описание фильма:
Третий сезон переносит нас в события, которые происходят спустя 300 лет после печально известного процесса над салемскими ведьмами. Итак, оставшиеся в живых потомки, в чьих жилах течет колдовская кровь, на грани исчезновения. В Новом Орлеане существует специальная школа, в которой ведьм обучают самозащите. И Верховная ведьма Фиона готова на все, чтобы защитить ведьминский клан.-
Сэмпл: -Релиз группа:
Перевод: Инга Бу
Постер: Чижик Пыжик
При поддержке: Seopult
Рип, работа со звуком: ЛП
-Качество видео: WEB-DLRip
Продолжительность: ~00:50:00
Видео: AVI, 720x400 (1.80:1), 23.976 fps, XviD build 65 ~1998 kbps avg, 0.29 bit/pixel
Audio Rus: 48 kHz, AC3 Dolby Digital, 3/2 (L,C,R,l,r) + LFE ch, ~384 kbps
Audio Eng: 48 kHz, AC3 Dolby Digital, 3/2 (L,C,R,l,r) + LFE ch, ~384 kbps

MediaInfo

Полное имя : F:\Сериал\раздача\American.Horror.Story.s03\American.Horror.Story.s03e01.rus.eng.CasStudio.avi
Формат : AVI
Формат/Информация : Audio Video Interleave
Размер файла : 1013 Мбайт
Продолжительность : 50 м.
Общий поток : 2782 Кбит/сек
Программа кодирования : VirtualDubMod 1.5.10.2 (build 2540/release)
Библиотека кодирования : VirtualDubMod build 2540/release
Видео
Идентификатор : 0
Формат : MPEG-4 Visual
Профиль формата : Advanced [email protected]
Параметр BVOP формата : 1
Параметр QPel формата : Нет
Параметр GMC формата : Без точки перехода
Параметр матрицы формата : Default (MPEG)
Идентификатор кодека : XVID
Идентификатор кодека/Подсказка : XviD
Продолжительность : 50 м.
Битрейт : 2000 Кбит/сек
Ширина : 720 пикс.
Высота : 400 пикс.
Соотношение сторон : 16:9
Частота кадров : 23,976 кадр/сек
Цветовое пространство : YUV
Подвыборка цветности : 4:2:0
Битовая глубина : 8 бит
Тип развёртки : Прогрессивная
Метод сжатия : С потерями
Бит/(Пиксели*Кадры) : 0.290
Размер потока : 728 Мбайт (72%)
Библиотека кодирования : XviD 65
Аудио #1
Идентификатор : 1
Формат : AC-3
Формат/Информация : Audio Coding 3
Расширение режима : CM (complete main)
Идентификатор кодека : 2000
Продолжительность : 50 м.
Вид битрейта : Постоянный
Битрейт : 384 Кбит/сек
Каналы : 6 каналов
Расположение каналов : Front: L C R, Side: L R, LFE
Частота : 48,0 КГц
Битовая глубина : 16 бит
Метод сжатия : С потерями
Размер потока : 140 Мбайт (14%)
Выравнивание : Разделение по промежуткам
Продолжительность промежутка : 42 мс. (1,00 видеокадр)
Время предзагрузки промежутка : 500 ms
Аудио #2
Идентификатор : 2
Формат : AC-3
Формат/Информация : Audio Coding 3
Расширение режима : CM (complete main)
Идентификатор кодека : 2000
Продолжительность : 50 м.
Вид битрейта : Постоянный
Битрейт : 384 Кбит/сек
Каналы : 6 каналов
Расположение каналов : Front: L C R, Side: L R, LFE
Частота : 48,0 КГц
Битовая глубина : 16 бит
Метод сжатия : С потерями
Размер потока : 140 Мбайт (14%)
Выравнивание : Разделение по промежуткам
Продолжительность промежутка : 42 мс. (1,00 видеокадр)
Время предзагрузки промежутка : 500 ms

Раздача ведётся путём добавления новых серий

Раздача ведётся путём добавления новых серий; при каждом добавлении создаётся новый торрент. Чтобы начать докачку новой серии, пользователям необходимо сделать следующее:
(1) остановить скачивание,
(2) удалить старый торрент у себя из клиента (старые серии удалять не надо),
(3) скачать новый торрент и запустить его у себя в клиенте вместо старого, при этом указать клиенту путь в старую папку куда и должно происходить скачивание новых серий.
Ваш клиент при этом должен произвести хеширование (проверку) старой папки (если не производит сам - помогите ему сделать это), и будет докачивать только те серии которых у вас ещё нет. Старые серии при этом не удаляются, а продолжают раздаваться!
Eсли вы уже удалили старые серии, то предотвратить повторную закачку старых серий можно, отжав галочку в соответствующих местах при запуске нового торрента. По возможности, желательно не удалять старые серии как можно дольше чтобы релизёр не столько продолжал раздавать старые серии, а смог сконцентрироваться на новых.
Скриншоты:
Яндекс.Метрика
Рейтинг@Mail.ru